Tags
Language
Tags

CH5. - All You Can Eat: Secrets of the World's Mega Buffet (2019)

Posted By: notbanned
1080p (FullHD) / HDTV
CH5. - All You Can Eat: Secrets of the World's Mega Buffet (2019)

CH5. - All You Can Eat: Secrets of the World's Mega Buffet (2019)
HDTV 720p | MKV | 1280x720 | AVC@2300 Kbps | English AC3@384 Kbps | 6 channels | 44 min 57 s | 881 MiB
HDTV 1080p | MKV | 1920x1080 | AVC@4610 Kbps | English AAC @123 Kbps | 2 channels | 44 min 52 s | 1.50 GiB
Genre: Documentary

The JRC Global Buffet in Watford is one of the biggest restaurants in the UK. Covering 27,000 square feet, and serving up to 350 dishes from all over the world, it can feed as many as 3,000 people every day. Cameras reveal how the company can feed people as much as they want for a set price and keep their business booming.

General
Complete name : All.You.Can.Eat.Scts.Of.The.Worlds.Mega.Buffet.2019.720p.mkv
Format : Matroska
Format version : Version 4 / Version 2
File size : 881 MiB
Duration : 44 min 57 s
Overall bit rate : 2 739 kb/s

Video
ID : 1
Format : AVC
Format/Info : Advanced Video Codec
Format profile : High@L4.1
Format settings, CABAC : Yes
Format settings, ReFrames : 5 frames
Codec ID : V_MPEG4/ISO/AVC
Duration : 44 min 57 s
Bit rate : 2 300 kb/s
Width : 1 280 pixels
Height : 720 pixels
Display aspect ratio : 16:9
Frame rate mode : Constant
Frame rate : 25.000 FPS
Color space : YUV
Chroma subsampling : 4:2:0
Bit depth : 8 bits
Scan type : Progressive
Bits/(Pixel*Frame) : 0.100
Stream size : 740 MiB (84%)
Writing library : x264 core 157 r2970 5493be8
Encoding settings : cabac=1 / ref=5 / deblock=1:0:0 / analyse=0x3:0x113 / me=hex / subme=8 / psy=1 / psy_rd=1.00:0.00 / mixed_ref=1 / me_range=16 / chroma_me=1 / trellis=2 / 8x8dct=1 / cqm=0 / deadzone=21,11 / fast_pskip=1 / chroma_qp_offset=-2 / threads=22 / lookahead_threads=3 / sliced_threads=0 / nr=0 / decimate=1 / interlaced=0 / bluray_compat=0 / constrained_intra=0 / bframes=3 / b_pyramid=2 / b_adapt=1 / b_bias=0 / direct=3 / weightb=1 / open_gop=0 / weightp=2 / keyint=250 / keyint_min=25 / scenecut=40 / intra_refresh=0 / rc_lookahead=50 / rc=crf / mbtree=1 / crf=20.0 / qcomp=0.60 / qpmin=0 / qpmax=69 / qpstep=4 / ip_ratio=1.40 / aq=1:1.00
Language : English
Default : Yes
Forced : No
Color range : Limited
Matrix coefficients : BT.709

Audio
ID : 2
Format : AC-3
Format/Info : Audio Coding 3
Format settings, Endianness : Big
Codec ID : A_AC3
Duration : 44 min 57 s
Bit rate mode : Constant
Bit rate : 384 kb/s
Channel(s) : 6 channels
Channel positions : Front: L C R, Side: L R, LFE
Sampling rate : 48.0 kHz
Frame rate : 31.250 FPS (1536 spf)
Bit depth : 16 bits
Compression mode : Lossy
Stream size : 123 MiB (14%)
Language : English
Service kind : Complete Main
Default : Yes
Forced : No


General
Complete name : All.You.Can.Eat.Scts.of.the.Worlds.Mega.Buffet.2019.1080p.mkv
Format : Matroska
Format version : Version 4 / Version 2
File size : 1.50 GiB
Duration : 44 min 52 s
Overall bit rate : 4 770 kb/s

Video
ID : 1
Format : AVC
Format/Info : Advanced Video Codec
Format profile : High@L4
Format settings, CABAC : Yes
Format settings, ReFrames : 4 frames
Codec ID : V_MPEG4/ISO/AVC
Duration : 44 min 52 s
Width : 1 920 pixels
Height : 1 080 pixels
Display aspect ratio : 16:9
Frame rate mode : Constant
Frame rate : 25.000 FPS
Standard : Component
Color space : YUV
Chroma subsampling : 4:2:0
Bit depth : 8 bits
Scan type : Progressive
Language : English
Default : Yes
Forced : No
Color range : Limited
Color primaries : BT.709
Transfer characteristics : BT.709
Matrix coefficients : BT.709

Audio
ID : 2
Format : AAC
Format/Info : Advanced Audio Codec
Format profile : LC
Codec ID : A_AAC
Duration : 44 min 52 s
Channel(s) : 2 channels
Channel positions : Front: L R
Sampling rate : 48.0 kHz
Frame rate : 46.875 FPS (1024 spf)
Compression mode : Lossy
Language : English
Default : Yes
Forced : No

Text
ID : 3
Format : DVB Subtitle
Codec ID : S_DVBSUB
Codec ID/Info : Picture based subtitle format used on DVBs
Language : English
Default : No
Forced : No


Screenshots 720p:

CH5. - All You Can Eat: Secrets of the World's Mega Buffet (2019)

CH5. - All You Can Eat: Secrets of the World's Mega Buffet (2019)

CH5. - All You Can Eat: Secrets of the World's Mega Buffet (2019)

CH5. - All You Can Eat: Secrets of the World's Mega Buffet (2019)

Screenshots 1080p:

CH5. - All You Can Eat: Secrets of the World's Mega Buffet (2019)

CH5. - All You Can Eat: Secrets of the World's Mega Buffet (2019)

CH5. - All You Can Eat: Secrets of the World's Mega Buffet (2019)

CH5. - All You Can Eat: Secrets of the World's Mega Buffet (2019)