Cecil Taylor - All The Notes (2010)

Posted By: vivid23
Cecil Taylor - All The Notes (2010)

Cecil Taylor - All The Notes (2010)
DVDrip | 716x478 | MKV/x264 @ 2300 Kbps | 72mn | Audio: English AC3 224 kbps, 2 channels | Subs: None | 1.3 GB
Genre: Documentary

Cecil Taylor is the grand master of free jazz piano. All the Notes captures in breezy fashion the unconventional stance of this media-shy modern musical genius, regarded as one of the true giants of post-war music. Taylor is first seen musing over Santiago Calatrava's feecy architecture- a typical sign of the pianist's famed eclectic interests, which extend from soloing, combo and small orchestra work to spoken word performance. Seated at his beloved and battered piano in his Brooklyn brownstone the maestro holds court with frequent stentorian pronouncements on life, art and music. A massively interesting documentary on a true icon.

Video
ID : 1
Format : AVC
Format/Info : Advanced Video Codec
Format profile : High@L3.1
Format settings, CABAC : Yes
Format settings, ReFrames : 9 frames
Codec ID : V_MPEG4/ISO/AVC
Duration : 1h 12mn
Bit rate : 2 300 Kbps
Width : 716 pixels
Height : 478 pixels
Display aspect ratio : 4:3
Frame rate : 23.976 fps
Color space : YUV
Chroma subsampling : 4:2:0
Bit depth : 8 bits
Scan type : Progressive
Bits/(Pixel*Frame) : 0.280
Stream size : 1.16 GiB (89%)
Writing library : x264 core 120
Encoding settings : cabac=1 / ref=9 / deblock=1:-2:-2 / analyse=0x3:0x133 / me=umh / subme=9 / psy=1 / psy_rd=1.00:0.00 / mixed_ref=1 / me_range=24 / chroma_me=1 / trellis=2 / 8x8dct=1 / cqm=0 / deadzone=21,11 / fast_pskip=0 / chroma_qp_offset=-2 / threads=6 / sliced_threads=0 / nr=0 / decimate=1 / interlaced=0 / bluray_compat=0 / constrained_intra=0 / bframes=6 / b_pyramid=2 / b_adapt=2 / b_bias=0 / direct=3 / weightb=1 / open_gop=0 / weightp=2 / keyint=240 / keyint_min=24 / scenecut=40 / intra_refresh=0 / rc_lookahead=50 / rc=crf / mbtree=1 / crf=19.0 / qcomp=0.60 / qpmin=3 / qpmax=69 / qpstep=4 / ip_ratio=1.40 / aq=1:1.20
Language : English
Color primaries : BT.601-6 525, BT.1358 525, BT.1700 NTSC, SMPTE 170M
Transfer characteristics : BT.709-5, BT.1361
Matrix coefficients : BT.601-6 525, BT.1358 525, BT.1700 NTSC, SMPTE 170M

Audio
ID : 2
Format : AC-3
Format/Info : Audio Coding 3
Mode extension : CM (complete main)
Codec ID : A_AC3
Duration : 1h 12mn
Bit rate mode : Constant
Bit rate : 224 Kbps
Channel(s) : 2 channels
Channel positions : Front: L R
Sampling rate : 48.0 KHz
Bit depth : 16 bits
Compression mode : Lossy
Stream size : 116 MiB (9%)
Language : English

Menu
00:00:00.000 : Chapter 1
00:05:00.883 : Chapter 2
00:10:06.689 : Chapter 3
00:15:00.149 : Chapter 4
00:20:00.449 : Chapter 5
00:25:00.874 : Chapter 6
00:29:59.964 : Chapter 7
00:35:00.848 : Chapter 8
00:40:00.272 : Chapter 9
00:45:00.864 : Chapter 10
00:50:00.455 : Chapter 11
00:55:00.880 : Chapter 12
01:00:00.179 : Chapter 13
01:05:00.062 : Chapter 14
01:10:00.154 : Chapter 15
01:12:11.493 : Chapter 16


Cecil Taylor - All The Notes (2010)

Cecil Taylor - All The Notes (2010)


Feel free to contact me when links are dead