Tags
Language
Tags

Ally McBeal Season 4 - Complete (2000-2001)

Posted By: king-ston
Ally McBeal Season 4 - Complete (2000-2001)

Ally McBeal Season 4 - Complete (2000-2001)
DVDRip | AVI | Divx, ~995 Kbps | 512x368 | 25 fps | 7.9 GB | Runtime: ~40 Min Per Episode
Audio : English Ac3 192 Kbps | 2 channels | 48 KHz | Subtitle : None
Genre : Comedy | Drama | Fantasy | Music | Romance

Ally McBeal and Billy Thomas were going steady throughout their childhoods. Ally even followed Billy to Harvard law school despite having no interest in law. But when Billy chose to pursue a career in law away from Ally, their relationship came to an end. In the present, an old classmate of Ally's named Richard Fish gives Ally a job at his law firm, where Billy and his new wife are also working. This puts Ally in a predicament since she still has feelings for Billy which she's laboring to get over. At the office, Ally puts up with a nosy, gossiping secretary named Elaine, and an oddball lawyer named John Cage never seems to lose a case. At home, Ally's friend and house-mate Renée regularly advises her on her love life. The series follows Ally's trials and tribulations in life through her eyes, and caricaturizes her personal thoughts and fantasies.
IMDB


Video
ID : 0
Format : MPEG-4 Visual
Format profile : Advanced Simple@L5
Format settings, BVOP : 1
Format settings, QPel : No
Format settings, GMC : No warppoints
Format settings, Matrix : Default (H.263)
Codec ID : XVID
Codec ID/Hint : XviD
Duration : 40mn 45s
Bit rate : 995 Kbps
Width : 512 pixels
Height : 368 pixels
Display aspect ratio : 1.391
Frame rate : 25.000 fps
Color space : YUV
Chroma subsampling : 4:2:0
Bit depth : 8 bits
Scan type : Progressive
Compression mode : Lossy
Bits/(Pixel*Frame) : 0.211
Stream size : 290 MiB (83%)
Writing library : XviD 1.1.0 (UTC 2005-11-22)

Audio
ID : 1
Format : AC-3
Format/Info : Audio Coding 3
Format profile : Dolby Digital
Mode extension : CM (complete main)
Format settings, Endianness : Big
Codec ID : 2000
Duration : 40mn 45s
Bit rate mode : Constant
Bit rate : 192 Kbps
Channel(s) : 2 channels
Channel positions : Front: L R
Sampling rate : 48.0 KHz
Frame rate : 31.250 fps (1536 spf)
Compression mode : Lossy
Stream size : 56.0 MiB (16%)
Alignment : Split accross interleaves
Interleave, duration : 40 ms (1.00 video frame)
Interleave, preload duration : 500 ms


Ally McBeal Season 4 - Complete (2000-2001)