Tags
Language
Tags

Amarcord (1973)

Posted By: Tavaz
720p (HD) / BDRip IMDb
Amarcord (1973)

Amarcord (1973)
BDRip | MOV | 1280x688 | Italian | H264 @ 1509 kbps | AAC @ 152 kbps | 2 h 3 min | 1.44 GiB
Subtitles: English
Genre: Comedy, Drama

In an Italian seaside town, young Titta gets into trouble with his friends and watches various local eccentrics as they engage in often absurd behavior. Frequently clashing with his stern father and defended by his doting mother, Titta witnesses the actions of a wide range of characters, from his extended family to Fascist loyalists to sensual women, with certain moments shifting into fantastical scenarios.

Amarcord (Fellini 1973) Criterion m720p.sample.m4v (12.2 MB)
Amarcord (Fellini 1973) Criterion m720p.m4v (1.4 GB)
Amarcord (Fellini 1973) Criterion m720p.srt (90.2 KB)



General
Complete name : ./Amarcord (Fellini 1973) Criterion m720p.m4v
Format : MPEG-4
Format profile : Base Media / Version 2
Codec ID : mp42 (mp42/isom/avc1)
File size : 1.44 GiB
Duration : 2 h 3 min
Overall bit rate mode : Variable
Overall bit rate : 1 668 kb/s
Movie name : Amarcord
Director : Federico Fellini
Actor : Josiane Tanzilli / Magali Noël / Bruno Zanin / Armando Brancia / Ciccio Ingrassia / Pupella Maggio / Nando Orfei / Luigi Rossi / Maria Antonietta Beluzzi / Gianfilippo Carcano
Screenplay by : Federico Fellini / Tonino Guerra
Producer : Franco Cristaldi
Genre : Comedy Drama
ContentType : Short Film
Description : The Fantastic World of Fellini!
Recorded date : UTC 1974-09-19 10:00:00
Encoded date : UTC 2013-05-26 20:27:11
Tagged date : UTC 2013-05-27 16:08:49
Writing application : iFlicks
Cover : Yes
Comment : Information courtesy of TMDb (www.themoviedb.org). Used with permission.
Rating : None
TVNetworkName : F.C. Produzioni, PECF
LongDescription : A year in the life of a small Italian coastal town in the nineteen-thirties, as is recalled by a director with a superstar's access to the resources of the Italian film industry and a piper's command over our imaginations.
HDVideo : Yes
AppleStoreCatalogID : 514093550

Video
ID : 1
Format : AVC
Format/Info : Advanced Video Codec
Format profile : Main@L3.1
Format settings : CABAC / 4 Ref Frames
Format settings, CABAC : Yes
Format settings, RefFrames : 4 frames
Codec ID : avc1
Codec ID/Info : Advanced Video Coding
Duration : 2 h 3 min
Bit rate : 1 509 kb/s
Width : 1 280 pixels
Height : 688 pixels
Display aspect ratio : 1.85:1
Frame rate mode : Variable
Frame rate : 23.976 FPS
Minimum frame rate : 19.048 FPS
Maximum frame rate : 24.390 FPS
Color space : YUV
Chroma subsampling : 4:2:0
Bit depth : 8 bits
Scan type : Progressive
Bits/(Pixel*Frame) : 0.071
Stream size : 1.31 GiB (90%)
Writing library : x264 core 120
Encoding settings : cabac=1 / ref=1 / deblock=1:0:0 / analyse=0x1:0x111 / me=hex / subme=2 / psy=1 / psy_rd=1.00:0.00 / mixed_ref=0 / me_range=16 / chroma_me=1 / trellis=0 / 8x8dct=0 / cqm=0 / deadzone=21,11 / fast_pskip=1 / chroma_qp_offset=0 / threads=3 / sliced_threads=0 / nr=0 / decimate=1 / interlaced=0 / bluray_compat=0 / constrained_intra=0 / bframes=3 / b_pyramid=2 / b_adapt=1 / b_bias=0 / direct=1 / weightb=1 / open_gop=0 / weightp=1 / keyint=240 / keyint_min=24 / scenecut=40 / intra_refresh=0 / rc_lookahead=10 / rc=crf / mbtree=1 / crf=22.0 / qcomp=0.60 / qpmin=3 / qpmax=69 / qpstep=4 / ip_ratio=1.40 / aq=1:1.00
Encoded date : UTC 2013-05-26 20:27:11
Tagged date : UTC 2013-05-26 23:33:24
Color range : Limited
Color primaries : BT.709
Transfer characteristics : BT.709
Matrix coefficients : BT.709

Audio
ID : 2
Format : AAC
Format/Info : Advanced Audio Codec
Format profile : LC
Codec ID : mp4a-40-2
Duration : 2 h 3 min
Bit rate mode : Variable
Bit rate : 153 kb/s
Maximum bit rate : 194 kb/s
Channel(s) : 1 channel
Channel positions : Front: C
Sampling rate : 48.0 kHz
Frame rate : 46.875 FPS (1024 SPF)
Compression mode : Lossy
Stream size : 135 MiB (9%)
Title : Stereo
Language : Italian
Encoded date : UTC 2013-05-26 20:27:11
Tagged date : UTC 2013-05-26 23:33:23

Text
ID : 3
Format : Timed Text
Muxing mode : sbtl
Codec ID : tx3g
Duration : 2 h 3 min
Bit rate mode : Variable
Bit rate : 51 b/s
Stream size : 45.9 KiB (0%)
Language : English
Default : Yes
Forced : No
Alternate group : 2
Encoded date : UTC 2013-05-26 20:27:11
Tagged date : UTC 2013-05-26 23:33:23





Amarcord (1973)


Amarcord (1973)


Amarcord (1973)


Amarcord (1973)


Amarcord (1973)