Nat. Geo. - America Inside Out Series 1: White Anxiety (2018)

Posted By: notbanned
720p (HD) / HDTV
Nat. Geo. - America Inside Out Series 1: White Anxiety (2018)

Nat. Geo. - America Inside Out Series 1: White Anxiety (2018)
HDTV | 1280x720 | .MP4/AVC @ 2951 Kbps | 46 min 34 s | 1.02 GiB
Audio: English AAC 160 kbps, 2 channels | Subs: English
Genre: Documentary

Katie Couric travels to rural and Rust Belt America to examine the real roots of anger and frustration among America’s white working class. In this episode, The anxiety among the white working class is examined to understand its impact on America's political and cultural divide.

General
Complete name : America.Inside.Out.Series.1.White.Anxiety.720p.mp4
Format : MPEG-4
Format profile : Base Media
Codec ID : isom (isom)
File size : 1.02 GiB
Duration : 46 min 34 s
Overall bit rate mode : Variable
Overall bit rate : 3 122 kb/s

Video
ID : 1
Format : AVC
Format/Info : Advanced Video Codec
Format profile : High@L4.1
Format settings, CABAC : Yes
Format settings, ReFrames : 4 frames
Codec ID : avc1
Codec ID/Info : Advanced Video Coding
Duration : 46 min 34 s
Bit rate : 2 951 kb/s
Maximum bit rate : 10.9 Mb/s
Width : 1 280 pixels
Height : 720 pixels
Display aspect ratio : 16:9
Frame rate mode : Variable
Frame rate : 23.976 (24000/1001) FPS
Minimum frame rate : 23.974 FPS
Maximum frame rate : 23.981 FPS
Color space : YUV
Chroma subsampling : 4:2:0
Bit depth : 8 bits
Scan type : Progressive
Bits/(Pixel*Frame) : 0.134
Stream size : 985 MiB (95%)
Encoding settings : cabac=1 / ref=1 / deblock=1:0:0 / analyse=0x3:0x3 / me=dia / subme=1 / psy=1 / psy_rd=1.00:0.00 / mixed_ref=0 / me_range=16 / chroma_me=1 / trellis=0 / 8x8dct=1 / cqm=0 / deadzone=21,11 / fast_pskip=1 / chroma_qp_offset=0 / threads=6 / lookahead_threads=1 / sliced_threads=0 / nr=0 / decimate=1 / interlaced=0 / bluray_compat=0 / constrained_intra=0 / bframes=3 / b_pyramid=2 / b_adapt=1 / b_bias=0 / direct=1 / weightb=1 / open_gop=0 / weightp=1 / keyint=240 / keyint_min=24 / scenecut=40 / intra_refresh=0 / rc_lookahead=0 / rc=abr / mbtree=0 / bitrate=2951 / ratetol=1.0 / qcomp=0.60 / qpmin=0 / qpmax=69 / qpstep=4 / vbv_maxrate=62500 / vbv_bufsize=78125 / nal_hrd=none / ip_ratio=1.40 / pb_ratio=1.30 / aq=1:1.00
Encoded date : UTC 2018-05-04 23:02:16
Tagged date : UTC 2018-05-04 23:38:51
Color range : Limited
Color primaries : BT.709
Transfer characteristics : BT.709
Matrix coefficients : BT.709

Audio
ID : 2
Format : AAC
Format/Info : Advanced Audio Codec
Format profile : LC
Codec ID : 40
Duration : 46 min 34 s
Bit rate mode : Variable
Bit rate : 160 kb/s
Maximum bit rate : 271 kb/s
Channel(s) : 2 channels
Channel positions : Front: L R
Sampling rate : 48.0 kHz
Frame rate : 46.875 FPS (1024 spf)
Compression mode : Lossy
Stream size : 53.3 MiB (5%)
Language : English
Encoded date : UTC 2018-05-04 23:38:47
Tagged date : UTC 2018-05-04 23:38:51

Text
ID : 3
Format : Timed Text
Codec ID : tx3g
Duration : 46 min 32 s
Bit rate mode : Variable
Bit rate : 132 b/s
Stream size : 45.0 KiB (0%)
Forced : No
Encoded date : UTC 2018-05-04 23:38:51
Tagged date : UTC 2018-05-04 23:38:51


Screenshots:

Nat. Geo. - America Inside Out Series 1: White Anxiety (2018)

Nat. Geo. - America Inside Out Series 1: White Anxiety (2018)

Nat. Geo. - America Inside Out Series 1: White Anxiety (2018)

Nat. Geo. - America Inside Out Series 1: White Anxiety (2018)