Tags
Language
Tags

PBS American Experience - Lorraine Hansberry: Sighted Eyes/Feeling Heart (2018)

Posted By: notbanned
720p (HD) / WEB-DL IMDb
PBS American Experience - Lorraine Hansberry: Sighted Eyes/Feeling Heart (2018)

PBS American Experience - Lorraine Hansberry: Sighted Eyes/Feeling Heart (2018)
WEB-DL | 1280x720 | .MP4/AVC @ 4500 Kbps | 1 h 54 min | 3.67 GiB
Audio: English AAC 93.4 kbps, 2 channels | Subs: None
Genre: Documentary | Biography

Explore the inner life and works of the activist, playwright and author of A Raisin in the Sun, Lorraine Hansberry. Narrated by actress LaTanya Richardson Jackson and featuring the voice of Tony Award-winning actress Anika Noni Rose as Hansberry.

General
Complete name : American.Experience.S32E01.Lorraine.Hansberry.Sighted.Eyes.Feeling.Heart.720p.mp4
Format : MPEG-4
Format profile : Base Media
Codec ID : isom (isom/iso2/avc1/mp41)
File size : 3.67 GiB
Duration : 1 h 54 min
Overall bit rate mode : Constant
Overall bit rate : 4 601 kb/s

Video
ID : 1
Format : AVC
Format/Info : Advanced Video Codec
Format profile : High@L3.1
Format settings, CABAC : Yes
Format settings, ReFrames : 3 frames
Codec ID : avc1
Codec ID/Info : Advanced Video Coding
Duration : 1 h 54 min
Bit rate mode : Constant
Bit rate : 4 500 kb/s
Width : 1 280 pixels
Height : 720 pixels
Display aspect ratio : 16:9
Frame rate mode : Constant
Frame rate : 29.970 (30000/1001) FPS
Color space : YUV
Chroma subsampling : 4:2:0
Bit depth : 8 bits
Scan type : Progressive
Bits/(Pixel*Frame) : 0.163
Stream size : 3.59 GiB (98%)

Audio
ID : 2
Format : AAC
Format/Info : Advanced Audio Codec
Format profile : LC
Codec ID : 40
Duration : 1 h 54 min
Bit rate mode : Constant
Bit rate : 93.4 kb/s
Channel(s) : 2 channels
Channel positions : Front: L R
Sampling rate : 48.0 kHz
Frame rate : 46.875 FPS (1024 spf)
Compression mode : Lossy
Stream size : 76.3 MiB (2%)
Default : Yes
Alternate group : 1


Screenshots:

PBS American Experience - Lorraine Hansberry: Sighted Eyes/Feeling Heart (2018)

PBS American Experience - Lorraine Hansberry: Sighted Eyes/Feeling Heart (2018)

PBS American Experience - Lorraine Hansberry: Sighted Eyes/Feeling Heart (2018)

PBS American Experience - Lorraine Hansberry: Sighted Eyes/Feeling Heart (2018)