PBS American Masters - August Wilson: The Ground on Which I Stand (2015)

Posted By: notbanned
720p (HD) / WEB-DL IMDb
PBS American Masters - August Wilson: The Ground on Which I Stand (2015)

PBS American Masters - August Wilson: The Ground on Which I Stand (2015)
WEB-DL | 1280x720 | .MKV/AVC @ 2490 Kbps | 1 h 24 min | 1.57 GiB
Audio: English AAC 160 kbps, 2 channels | Subs: English
Genre: Documentary | Biography

Explore the life and legacy of August Wilson, the playwright some call America's Shakespeare, who chronicled the 20th-century black experience. Features James Earl Jones, Phylicia Rashad, Laurence Fishburne, Viola Davis, new dramatic readings and rare footage.

General
Unique ID : 79957938909152666473476071249783506710 (0x3C2756C1146677D53B332AF8D7234716)
Complete name : American.Masters.S29E02.August.Wilson.720p.mkv
Format : Matroska
Format version : Version 4 / Version 2
File size : 1.57 GiB
Duration : 1 h 24 min
Overall bit rate : 2 653 kb/s

Video
ID : 1
Format : AVC
Format/Info : Advanced Video Codec
Format profile : Main@L3.1
Format settings, CABAC : Yes
Format settings, ReFrames : 5 frames
Codec ID : V_MPEG4/ISO/AVC
Duration : 1 h 24 min
Bit rate : 2 490 kb/s
Width : 1 280 pixels
Height : 720 pixels
Display aspect ratio : 16:9
Frame rate mode : Constant
Frame rate : 29.970 (30000/1001) FPS
Color space : YUV
Chroma subsampling : 4:2:0
Bit depth : 8 bits
Scan type : Progressive
Bits/(Pixel*Frame) : 0.090
Stream size : 1.47 GiB (94%)
Writing library : Zencoder Video Encoding System
Default : Yes
Forced : No

Audio
ID : 2
Format : AAC
Format/Info : Advanced Audio Codec
Format profile : LC
Codec ID : A_AAC
Duration : 1 h 24 min
Bit rate : 160 kb/s
Channel(s) : 2 channels
Channel positions : Front: L R
Sampling rate : 44.1 kHz
Frame rate : 43.066 FPS (1024 spf)
Compression mode : Lossy
Stream size : 96.9 MiB (6%)
Default : Yes
Forced : No

Text
ID : 3
Format : UTF-8
Codec ID : S_TEXT/UTF8
Codec ID/Info : UTF-8 Plain Text
Duration : 1 h 24 min
Bit rate : 101 b/s
Count of elements : 2921
Stream size : 62.7 KiB (0%)
Language : English
Default : Yes
Forced : No


Screenshots:

PBS American Masters - August Wilson: The Ground on Which I Stand (2015)

PBS American Masters - August Wilson: The Ground on Which I Stand (2015)

PBS American Masters - August Wilson: The Ground on Which I Stand (2015)

PBS American Masters - August Wilson: The Ground on Which I Stand (2015)