PBS - American Masters: Althea (2015)

Posted By: notbanned
720p (HD) / WEB-DL IMDb
PBS - American Masters: Althea (2015)

PBS - American Masters: Althea (2015)
WEB-DL | 1280x720 | .MKV/AVC @ 2394 Kbps | 1 h 23 min | 1.47 GiB
Audio: English AAC 128 kbps, 2 channels | Subs: English
Genre: Documentary | Biography

Althea Gibson emerged as a most unlikely queen of the highly segregated tennis world of the 1950s. Her roots as a sharecropper's daughter, her family's migration to Harlem, her mentoring from Sugar Ray Robinson, David Dinkins and others, her fame that thrust her unwillingly into the glare of the early Civil Rights movement, all bring the story into a much broader realm of African American history, transcending sports.

General
Unique ID : 152319767734277633098408207489385308694 (0x7297B85DBA06AC43EA1DFD22325F2216)
Complete name : American.Masters.S29E06.Althea.720p.mkv
Format : Matroska
Format version : Version 4 / Version 2
File size : 1.47 GiB
Duration : 1 h 23 min
Overall bit rate : 2 525 kb/s

Video
ID : 1
Format : AVC
Format/Info : Advanced Video Codec
Format profile : High@L3.1
Format settings, CABAC : Yes
Format settings, ReFrames : 5 frames
Codec ID : V_MPEG4/ISO/AVC
Duration : 1 h 23 min
Bit rate : 2 394 kb/s
Width : 1 280 pixels
Height : 720 pixels
Display aspect ratio : 16:9
Frame rate mode : Constant
Frame rate : 29.970 (30000/1001) FPS
Color space : YUV
Chroma subsampling : 4:2:0
Bit depth : 8 bits
Scan type : Progressive
Bits/(Pixel*Frame) : 0.087
Stream size : 1.39 GiB (95%)
Writing library : Zencoder Video Encoding System
Default : Yes
Forced : No

Audio
ID : 2
Format : AAC
Format/Info : Advanced Audio Codec
Format profile : LC
Codec ID : A_AAC
Duration : 1 h 23 min
Bit rate : 128 kb/s
Channel(s) : 2 channels
Channel positions : Front: L R
Sampling rate : 48.0 kHz
Frame rate : 46.875 FPS (1024 spf)
Compression mode : Lossy
Stream size : 76.1 MiB (5%)
Default : Yes
Forced : No

Text
ID : 3
Format : UTF-8
Codec ID : S_TEXT/UTF8
Codec ID/Info : UTF-8 Plain Text
Duration : 1 h 23 min
Bit rate : 86 b/s
Count of elements : 2451
Stream size : 52.4 KiB (0%)
Language : English
Default : Yes


Screenshots:

PBS - American Masters: Althea (2015)

PBS - American Masters: Althea (2015)

PBS - American Masters: Althea (2015)

PBS - American Masters: Althea (2015)