PBS - American Masters: The Women's List (2017)

Posted By: notbanned
1080p (FullHD) / WEB-DL IMDb
PBS - American Masters: The Women's List (2017)

PBS - American Masters: The Women's List (2017)
WEB-DL | 1920x1080 | .MKV/AVC @ 6400 Kbps | 54 min 14 s | 2.49 GiB
Audio: English AAC 160 kbps, 2 channels | Subs: English
Genre: Documentary | Biography

This documentary features intimate interviews with Madeleine Albright, Gloria Allred, Laurie Anderson, Sara Blakely, Margaret Cho, Edie Falco, Elizabeth Holmes, Betsey Johnson, Alicia Keys, Aimee Mullins, Nancy Pelosi, Rosie Perez, Shonda Rhimes, Wendy Williams and Nia Wordlaw.

General
Unique ID : 244257714044016000242267099535674247487 (0xB7C2531687136CF9B7340C637C11093F)
Complete name : American.Masters.S29E08.The.Womens.List.1080p.mkv
Format : Matroska
Format version : Version 4 / Version 2
File size : 2.49 GiB
Duration : 54 min 14 s
Overall bit rate : 6 563 kb/s

Video
ID : 1
Format : AVC
Format/Info : Advanced Video Codec
Format profile : High@L5
Format settings, CABAC : Yes
Format settings, ReFrames : 5 frames
Codec ID : V_MPEG4/ISO/AVC
Duration : 54 min 14 s
Bit rate : 6 400 kb/s
Width : 1 920 pixels
Height : 1 080 pixels
Display aspect ratio : 16:9
Frame rate mode : Constant
Frame rate : 29.970 (30000/1001) FPS
Color space : YUV
Chroma subsampling : 4:2:0
Bit depth : 8 bits
Scan type : Progressive
Bits/(Pixel*Frame) : 0.103
Stream size : 2.42 GiB (98%)
Writing library : Zencoder Video Encoding System
Default : Yes
Forced : No

Audio
ID : 2
Format : AAC
Format/Info : Advanced Audio Codec
Format profile : LC
Codec ID : A_AAC
Duration : 54 min 14 s
Bit rate : 160 kb/s
Channel(s) : 2 channels
Channel positions : Front: L R
Sampling rate : 48.0 kHz
Frame rate : 46.875 FPS (1024 spf)
Compression mode : Lossy
Stream size : 62.0 MiB (2%)
Language : English
Default : Yes
Forced : No

Text
ID : 3
Format : UTF-8
Codec ID : S_TEXT/UTF8
Codec ID/Info : UTF-8 Plain Text
Duration : 53 min 53 s
Bit rate : 99 b/s
Count of elements : 1824
Stream size : 39.3 KiB (0%)
Language : English
Default : Yes
Forced : No


Screenshots:

PBS - American Masters: The Women's List (2017)

PBS - American Masters: The Women's List (2017)

PBS - American Masters: The Women's List (2017)

PBS - American Masters: The Women's List (2017)