American History X (1998)

Posted By: NaVi7
American History X (1998)

American History X (1998)
BDRip 720p | MKV / AVC, 4623 Kbps | 1280x720 | 1h 58mn | 4.37 GB
Francais: AC3, 640 Kbps (6 ch) | Sous-titres: Francais
Genre: Crime | Drame

Deux frères, Derek et Daniel (Danny) Vinyard qui vivent à Venice Beach, en Californie, sont deux jeunes étudiants intelligents et charismatiques. Derek rejoint le mouvement skinhead néonazi à la suite de la mort de son père pompier, tué par un dealer noir alors qu'il tentait d'éteindre un incendie dans un ghetto de Los Angeles. Un soir, Derek tue lui-même deux délinquants noirs qui tentaient de voler la voiture de son défunt père. Il est par la suite condamné à trois ans de prison pour homicide volontaire. Danny se retrouve influencé par l'idéologie de son aîné, mais Derek est libéré de prison et désormais radicalement transformé par son incarcération, tente d'empêcher son frère d'emprunter la même voie que lui.

imdb - Top 250 #34 | Nominated for 1 Oscar. Another 3 wins & 9 nominations.

General
Unique ID : 192623527341655845026796292987288765799 (0x90E9F1225463C1A5A764E84F51C34567)
Complete name : American.History.X.1998.FRENCH.720p.BluRay.x264-FHD.mkv
Format : Matroska
Format version : Version 2
File size : 4.37 GiB
Duration : 1h 58mn
Overall bit rate : 5 264 Kbps
Encoded date : UTC 2009-06-15 17:42:02
Writing application : mkvmerge v2.8.0 ('The Tree') built on May 9 2009 18:02:06
Writing library : libebml v0.7.7 + libmatroska v0.8.1

Video
ID : 1
Format : AVC
Format/Info : Advanced Video Codec
Format profile : High@L4.1
Format settings, CABAC : Yes
Format settings, ReFrames : 5 frames
Codec ID : V_MPEG4/ISO/AVC
Duration : 1h 58mn
Bit rate : 4 623 Kbps
Width : 1 280 pixels
Height : 720 pixels
Display aspect ratio : 16:9
Frame rate mode : Constant
Frame rate : 23.976 fps
Color space : YUV
Chroma subsampling : 4:2:0
Bit depth : 8 bits
Scan type : Progressive
Bits/(Pixel*Frame) : 0.209
Stream size : 3.75 GiB (86%)
Title : Video
Writing library : x264 core 67 r1165M 6841c5e
Encoding settings : cabac=1 / ref=5 / deblock=1:0:0 / analyse=0x3:0x2 / me=umh / subme=7 / psy_rd=1.0:0.0 / mixed_ref=1 / me_range=16 / chroma_me=1 / trellis=1 / 8x8dct=1 / cqm=0 / deadzone=21,11 / chroma_qp_offset=-2 / threads=6 / nr=0 / decimate=1 / mbaff=0 / bframes=3 / b_pyramid=1 / b_adapt=1 / b_bias=0 / direct=1 / wpredb=1 / keyint=250 / keyint_min=25 / scenecut=40 / rc=2pass / bitrate=4623 / ratetol=1.0 / qcomp=0.60 / qpmin=10 / qpmax=51 / qpstep=4 / cplxblur=20.0 / qblur=0.5 / ip_ratio=1.40 / pb_ratio=1.30 / aq=1:1.00
Language : French
Default : Yes
Forced : No

Audio
ID : 2
Format : AC-3
Format/Info : Audio Coding 3
Mode extension : CM (complete main)
Format settings, Endianness : Big
Codec ID : A_AC3
Duration : 1h 58mn
Bit rate mode : Constant
Bit rate : 640 Kbps
Channel(s) : 6 channels
Channel positions : Front: L C R, Side: L R, LFE
Sampling rate : 48.0 KHz
Bit depth : 16 bits
Compression mode : Lossy
Stream size : 544 MiB (12%)
Title : French AC3 5.1
Language : French
Default : Yes
Forced : No

Text
ID : 3
Format : UTF-8
Codec ID : S_TEXT/UTF8
Codec ID/Info : UTF-8 Plain Text
Title : Forced
Language : French
Default : Yes
Forced : No


Les captures d'ecran:

American History X (1998)

American History X (1998)

American History X (1998)


Bienvenue sur mon blog!

Abonnez-vous a ma newsletter!

Pas plus de miroirs!

Si vous voulez le telecharger, mais j'ai decouvert que les liens sont morts, il suffit de laisser un commentaire ou me PM!
Download Links:
Uploaded | Rapidgator
Liens vers RapidGator et Uploaded sont dans le fichier html. Telechargez le fichier et l'ouvrir dans votre navigateur.