Subcategories

Manjusha Films - Among the Believers (2015)

Posted By: notbanned
Manjusha Films - Among the Believers (2015)

Manjusha Films - Among the Believers (2015)
WEBRip | 832x468 | .MP4/AVC @ 1182 Kbps | 1 h 19 min | 770 MiB
Audio: English AAC 160 kbps, 2 channels | Subs: None
Genre: Documentary | Biography | News | War

Cleric Abdul Aziz Ghazi is waging jihad against the Pakistani state. His dream is to impose a strict version of Sharia law throughout the country, as a model for the world.The filmmakers follow Aziz on his personal quest to create an Islamic utopia, during the bloodiest period in Pakistan's modern history.The Red Mosque has students allied with ISIL, and strong ties to the Taliban. We meet two Red Mosque students whose paths diverge: Talha, 12, leaves his moderate Muslim family to study to be a jihadi preacher. Zarina, also 12, escapes her madrassa and joins a normal school.
More info


General
Complete name : Among.The.Believers.WEBRip.mp4
Format : MPEG-4
Format profile : Base Media / Version 2
Codec ID : mp42 (isom/iso2/avc1/mp41)
File size : 770 MiB
Duration : 1 h 19 min
Overall bit rate mode : Variable
Overall bit rate : 1 350 kb/s

Video
ID : 1
Format : AVC
Format/Info : Advanced Video Codec
Format profile : High@L4.1
Format settings, CABAC : Yes
Format settings, ReFrames : 4 frames
Codec ID : avc1
Codec ID/Info : Advanced Video Coding
Duration : 1 h 19 min
Bit rate : 1 182 kb/s
Width : 832 pixels
Height : 468 pixels
Display aspect ratio : 16:9
Frame rate mode : Constant
Frame rate : 25.000 FPS
Color space : YUV
Chroma subsampling : 4:2:0
Bit depth : 8 bits
Scan type : Progressive
Bits/(Pixel*Frame) : 0.121
Stream size : 674 MiB (88%)
Writing library : x264 core 142 r2479 dd79a61
Encoding settings : cabac=1 / ref=1 / deblock=1:0:0 / analyse=0x3:0x113 / me=hex / subme=2 / psy=1 / psy_rd=1.00:0.00 / mixed_ref=0 / me_range=16 / chroma_me=1 / trellis=0 / 8x8dct=1 / cqm=0 / deadzone=21,11 / fast_pskip=1 / chroma_qp_offset=0 / threads=12 / lookahead_threads=3 / sliced_threads=0 / nr=0 / decimate=1 / interlaced=0 / bluray_compat=0 / constrained_intra=0 / bframes=3 / b_pyramid=2 / b_adapt=1 / b_bias=0 / direct=1 / weightb=1 / open_gop=0 / weightp=1 / keyint=250 / keyint_min=25 / scenecut=40 / intra_refresh=0 / rc_lookahead=10 / rc=crf / mbtree=1 / crf=20.0 / qcomp=0.60 / qpmin=0 / qpmax=69 / qpstep=4 / vbv_maxrate=62500 / vbv_bufsize=78125 / crf_max=0.0 / nal_hrd=none / filler=0 / ip_ratio=1.40 / aq=1:1.00
Encoded date : UTC 2017-09-18 08:05:23
Tagged date : UTC 2017-09-18 08:05:23
Color range : Limited
Color primaries : BT.601 PAL
Transfer characteristics : BT.709
Matrix coefficients : BT.601

Audio
ID : 2
Format : AAC
Format/Info : Advanced Audio Codec
Format profile : LC
Codec ID : 40
Duration : 1 h 19 min
Bit rate mode : Variable
Bit rate : 160 kb/s
Channel(s) : 2 channels
Channel positions : Front: L R
Sampling rate : 44.1 kHz
Frame rate : 43.066 FPS (1024 spf)
Compression mode : Lossy
Stream size : 91.4 MiB (12%)
Title : Stereo / Stereo
Default : Yes
Alternate group : 1
Encoded date : UTC 2017-09-18 08:05:23
Tagged date : UTC 2017-09-18 08:05:23


Screenshots:

Manjusha Films - Among the Believers (2015)

Manjusha Films - Among the Believers (2015)

Manjusha Films - Among the Believers (2015)

Manjusha Films - Among the Believers (2015)