Tags
Language
Tags

HC - Ancient Aliens: The Alien Infection (2019)

Posted By: notbanned
720p (HD) / HDTV IMDb
HC - Ancient Aliens: The Alien Infection (2019)

HC - Ancient Aliens: The Alien Infection (2019)
HDTV | 1280x720 | .MKV/AVC @ 2491 Kbps | 42 min 7 s | 790 MiB
Audio: English AAC 128 kbps, 2 channels | Subs: None
Genre: Documentary

In 2016, scientists made the astonishing discovery that 30 percent of all protein adaptations since humans’ divergence with chimpanzees have been driven by viruses. Could ancient aliens have shaped human evolution by introducing viral epidemics on Earth? And if so, for what purpose? Are they making us more like them?

General
Unique ID : 60697887729978973159720339717007503984 (0x2DA9FCEA8E06E8D41830A9AB8D127270)
Complete name : Ancient.Aliens.The.Alien.Infection.720p.mkv
Format : Matroska
Format version : Version 4 / Version 2
File size : 790 MiB
Duration : 42 min 7 s
Overall bit rate : 2 621 kb/s

Video
ID : 1
Format : AVC
Format/Info : Advanced Video Codec
Format profile : Main@L3.1
Format settings, CABAC : Yes
Format settings, ReFrames : 4 frames
Codec ID : V_MPEG4/ISO/AVC
Duration : 42 min 7 s
Bit rate : 2 491 kb/s
Width : 1 280 pixels
Height : 720 pixels
Display aspect ratio : 16:9
Frame rate mode : Constant
Frame rate : 23.976 (24000/1001) FPS
Color space : YUV
Chroma subsampling : 4:2:0
Bit depth : 8 bits
Scan type : Progressive
Bits/(Pixel*Frame) : 0.113
Stream size : 750 MiB (95%)
Writing library : Zencoder Video Encoding System
Language : English
Default : Yes
Forced : No

Audio
ID : 2
Format : AAC
Format/Info : Advanced Audio Codec
Format profile : LC
Codec ID : A_AAC
Duration : 42 min 7 s
Bit rate : 128 kb/s
Channel(s) : 2 channels
Channel positions : Front: L R
Sampling rate : 48.0 kHz
Frame rate : 46.875 FPS (1024 spf)
Compression mode : Lossy
Stream size : 38.5 MiB (5%)
Language : English
Default : Yes
Forced : No


Screenshots:

HC - Ancient Aliens: The Alien Infection (2019)

HC - Ancient Aliens: The Alien Infection (2019)

HC - Ancient Aliens: The Alien Infection (2019)

HC - Ancient Aliens: The Alien Infection (2019)