History Channel - Ancient Aliens: Area 52 (2018)

Posted By: notbanned
720p (HD) / WEBRip
History Channel - Ancient Aliens: Area 52 (2018)

History Channel - Ancient Aliens: Area 52 (2018)
WEBRip | 1280x720 | .MKV/AVC @ 2491 Kbps | 42 min 20 s | 791 MiB
Audio: English AAC 128 kbps, 2 channels | Subs: None
Genre: Documentary

Could Area 51's notoriety act as a cover up to much bigger, top-secret extraterrestrial experiments taking place at multiple locations?

General
Unique ID : 30041791289743528197849158675130750596 (0x1699D6AABD9843519660B361CE101684)
Complete name : Ancient.aliens.Area.52.720p.mkv
Format : Matroska
Format version : Version 4 / Version 2
File size : 791 MiB
Duration : 42 min 20 s
Overall bit rate : 2 613 kb/s

Video
ID : 1
Format : AVC
Format/Info : Advanced Video Codec
Format profile : Main@L3.1
Format settings, CABAC : Yes
Format settings, ReFrames : 4 frames
Codec ID : V_MPEG4/ISO/AVC
Duration : 42 min 12 s
Bit rate : 2 491 kb/s
Width : 1 280 pixels
Height : 720 pixels
Display aspect ratio : 16:9
Frame rate mode : Constant
Frame rate : 23.976 (24000/1001) FPS
Color space : YUV
Chroma subsampling : 4:2:0
Bit depth : 8 bits
Scan type : Progressive
Bits/(Pixel*Frame) : 0.113
Stream size : 752 MiB (95%)
Writing library : Zencoder Video Encoding System
Default : Yes
Forced : No

Audio
ID : 2
Format : AAC
Format/Info : Advanced Audio Codec
Format profile : LC
Codec ID : A_AAC
Duration : 42 min 20 s
Bit rate : 128 kb/s
Channel(s) : 2 channels
Channel positions : Front: L R
Sampling rate : 48.0 kHz
Frame rate : 46.875 FPS (1024 spf)
Compression mode : Lossy
Stream size : 38.7 MiB (5%)
Default : Yes
Forced : No


Screenshots:

History Channel - Ancient Aliens: Area 52 (2018)

History Channel - Ancient Aliens: Area 52 (2018)

History Channel - Ancient Aliens: Area 52 (2018)

History Channel - Ancient Aliens: Area 52 (2018)