Angels in the Outfield (1951)

Posted By: Tavaz
1080p (FullHD) / HDTV IMDb
Angels in the Outfield (1951)

Angels in the Outfield (1951)
HDTV | MKV | 1432x1080 | English | H264 @ 11680 kbps | AC-3 @ 448 kbps | 1 h 38 min | 8.38 GiB
Subtitles: English
Genre: Comedy, Family, Fantasy

A young woman reporter blames the Pittsburgh Pirates' losing streak on the obscenely abusive manager. While she attempts to learn more about him for her column, he begins hearing the voice of an angel promising him help for the team if he will mend his ways.

5b21df3578654f58bd4ee466205ffc08.mkv (8.4 GB)



General
Complete name : ./5b21df3578654f58bd4ee466205ffc08.mkv
Format : Matroska
Format version : Version 4 / Version 2
File size : 8.38 GiB
Duration : 1 h 38 min
Overall bit rate : 12.1 Mb/s
Encoded date : UTC 2018-01-18 16:40:12
Writing application : mkvmerge v20.0.0 ('I Am The Sun') 64-bit
Writing library : libebml v1.3.5 + libmatroska v1.4.8

Video
ID : 1
Format : AVC
Format/Info : Advanced Video Codec
Format profile : High@L4.1
Format settings : CABAC / 5 Ref Frames
Format settings, CABAC : Yes
Format settings, RefFrames : 5 frames
Codec ID : V_MPEG4/ISO/AVC
Duration : 1 h 38 min
Bit rate : 11.7 Mb/s
Width : 1 432 pixels
Height : 1 080 pixels
Display aspect ratio : 4:3
Frame rate mode : Constant
Frame rate : 23.976 (24000/1001) FPS
Color space : YUV
Chroma subsampling : 4:2:0
Bit depth : 8 bits
Scan type : Progressive
Bits/(Pixel*Frame) : 0.315
Stream size : 8.07 GiB (96%)
Writing library : x264 core 155 r2893 b00bcaf
Encoding settings : cabac=1 / ref=5 / deblock=1:0:0 / analyse=0x3:0x113 / me=hex / subme=8 / psy=1 / psy_rd=1.00:0.00 / mixed_ref=1 / me_range=16 / chroma_me=1 / trellis=2 / 8x8dct=1 / cqm=0 / deadzone=21,11 / fast_pskip=1 / chroma_qp_offset=-2 / threads=18 / lookahead_threads=3 / sliced_threads=0 / nr=0 / decimate=1 / interlaced=0 / bluray_compat=0 / constrained_intra=0 / bframes=3 / b_pyramid=2 / b_adapt=1 / b_bias=0 / direct=3 / weightb=1 / open_gop=0 / weightp=2 / keyint=250 / keyint_min=23 / scenecut=40 / intra_refresh=0 / rc_lookahead=50 / rc=crf / mbtree=1 / crf=18.0 / qcomp=0.60 / qpmin=0 / qpmax=69 / qpstep=4 / ip_ratio=1.40 / aq=1:1.00
Default : Yes
Forced : No

Audio
ID : 2
Format : AC-3
Format/Info : Audio Coding 3
Format settings, Endianness : Big
Codec ID : A_AC3
Duration : 1 h 38 min
Bit rate mode : Constant
Bit rate : 448 kb/s
Channel(s) : 6 channels
Channel positions : Front: L C R, Side: L R, LFE
Sampling rate : 48.0 kHz
Frame rate : 31.250 FPS (1536 SPF)
Bit depth : 16 bits
Compression mode : Lossy
Stream size : 317 MiB (4%)
Language : English
Service kind : Complete Main
Default : Yes
Forced : No

Text
ID : 3
Format : UTF-8
Codec ID : S_TEXT/UTF8
Codec ID/Info : UTF-8 Plain Text
Duration : 1 h 38 min
Bit rate : 101 b/s
Count of elements : 2040
Stream size : 73.0 KiB (0%)
Language : English
Default : No
Forced : No





Angels in the Outfield (1951)


Angels in the Outfield (1951)


Angels in the Outfield (1951)


Angels in the Outfield (1951)


Angels in the Outfield (1951)