Anthony Bourdain - Parts Unknown: Charleston (2015)

Posted By: notbanned
720p (HD) / HDTV
Anthony Bourdain - Parts Unknown: Charleston (2015)

Anthony Bourdain - Parts Unknown: Charleston (2015)
HDTV | 1280x720 | .MKV/AVC @ 2519 Kbps | 42 min 25 s | 919 MiB
Audio: English AC3 448 kbps, 6 channels | Subs: None
Genre: Documentary

For the season finale, Bourdain travels with “one of America’s most important chefs,” Sean Brock, to sample Charleston’s varied food offerings including traditional Gullah cuisine, and oyster pie and shrimp and grits at Brock’s restaurant Husk with actor and a Charleston resident, Bill Murray.

General
Unique ID : 172600404855797572212276531994004794998 (0x81D9A0F9DB5F3546B142025C48FFAE76)
Complete name : Anthony.Bourdain.Parts.Unknown.Charleston.720p.mkv
Format : Matroska
Format version : Version 2
File size : 919 MiB
Duration : 42 min 25 s
Overall bit rate : 3 028 kb/s

Video
ID : 1
Format : AVC
Format/Info : Advanced Video Codec
Format profile : High@L4.1
Format settings, CABAC : Yes
Format settings, ReFrames : 5 frames
Codec ID : V_MPEG4/ISO/AVC
Duration : 42 min 25 s
Bit rate : 2 519 kb/s
Width : 1 280 pixels
Height : 720 pixels
Display aspect ratio : 16:9
Frame rate mode : Constant
Frame rate : 23.976 (24000/1001) FPS
Color space : YUV
Chroma subsampling : 4:2:0
Bit depth : 8 bits
Scan type : Progressive
Bits/(Pixel*Frame) : 0.114
Stream size : 764 MiB (83%)
Encoding settings : cabac=1 / ref=5 / deblock=1:0:0 / analyse=0x3:0x113 / me=umh / subme=8 / psy=1 / psy_rd=1.00:0.00 / mixed_ref=1 / me_range=16 / chroma_me=1 / trellis=1 / 8x8dct=1 / cqm=0 / deadzone=21,11 / fast_pskip=1 / chroma_qp_offset=-2 / threads=12 / lookahead_threads=2 / sliced_threads=0 / nr=0 / decimate=1 / interlaced=0 / bluray_compat=0 / constrained_intra=0 / bframes=3 / b_pyramid=2 / b_adapt=2 / b_bias=0 / direct=3 / weightb=1 / open_gop=0 / weightp=2 / keyint=250 / keyint_min=23 / scenecut=40 / intra_refresh=0 / rc_lookahead=50 / rc=crf / mbtree=1 / crf=21.0 / qcomp=0.60 / qpmin=0 / qpmax=69 / qpstep=4 / ip_ratio=1.40 / aq=1:1.00
Default : Yes
Forced : No

Audio
ID : 2
Format : AC-3
Format/Info : Audio Coding 3
Format settings, Endianness : Big
Codec ID : A_AC3
Duration : 42 min 25 s
Bit rate mode : Constant
Bit rate : 448 kb/s
Channel(s) : 6 channels
Channel positions : Front: L C R, Side: L R, LFE
Sampling rate : 48.0 kHz
Frame rate : 31.250 FPS (1536 spf)
Bit depth : 16 bits
Compression mode : Lossy
Stream size : 136 MiB (15%)
Service kind : Complete Main
Default : Yes
Forced : No


Screenshots:

Anthony Bourdain - Parts Unknown: Charleston (2015)

Anthony Bourdain - Parts Unknown: Charleston (2015)

Anthony Bourdain - Parts Unknown: Charleston (2015)

Anthony Bourdain - Parts Unknown: Charleston (2015)