Tags
Language
Tags

Antonio Sabato, Max Delys - Gun Man (1977)

Posted By: Tavaz
Antonio Sabato, Max Delys - Gun Man (1977)

Antonio Sabato, Max Delys - Gun Man (1977)
DVDRip | 750x576 | English | H264 @ 1202 kbps | MPEG Audio @ 192 kbps | 1 h 29 min | 894 MiB
Genre: Action, Crime, Drama

A man gets caught up in a criminal organization and finds that once in, you can't get out.


General
Complete name : ./Gun Man.avi
Format : AVI
Format/Info : Audio Video Interleave
File size : 894 MiB
Duration : 1 h 29 min
Overall bit rate : 1 404 kb/s

Video
ID : 0
Format : AVC
Format/Info : Advanced Video Codec
Format profile : Main@L5.1
Format settings : CABAC / 1 Ref Frames
Format settings, CABAC : Yes
Format settings, RefFrames : 1 frame
Codec ID : H264
Duration : 1 h 29 min
Bit rate : 1 202 kb/s
Width : 750 pixels
Height : 576 pixels
Display aspect ratio : 4:3
Frame rate : 25.000 FPS
Color space : YUV
Chroma subsampling : 4:2:0
Bit depth : 8 bits
Scan type : Progressive
Bits/(Pixel*Frame) : 0.111
Stream size : 765 MiB (86%)

Audio
ID : 1
Format : MPEG Audio
Format version : Version 1
Format profile : Layer 3
Codec ID : 55
Codec ID/Hint : MP3
Duration : 1 h 29 min
Bit rate mode : Constant
Bit rate : 192 kb/s
Channel(s) : 2 channels
Sampling rate : 44.1 kHz
Compression mode : Lossy
Stream size : 122 MiB (14%)
Alignment : Split accross interleaves
Interleave, duration : 40 ms (1.00 video frame)
Interleave, preload duration : 274 ms





Antonio Sabato, Max Delys - Gun Man (1977)


Antonio Sabato, Max Delys - Gun Man (1977)


Antonio Sabato, Max Delys - Gun Man (1977)


Antonio Sabato, Max Delys - Gun Man (1977)