Apache Warrior (2017)

Posted By: Without
1080p (FullHD) / WEB-DL IMDb
Apache Warrior (2017)

Apache Warrior (2017)
WEB-DL 1080p | MKV | 1920x1080 | AVC@9381 kb/s | English AC3@640 kb/s
Subs: English | 6 channels | 1 h 28 min | 6.20 GB
Genre: Documentary

Apache Warrior is a feature film made with 100% unprecedented real footage, actual attack pilot gun tapes, multiple cameras and interviews. We researched hundreds of hours of footage in order to find this true story. This film takes the audience into the cockpit of a squadron of Apache Attack Helicopters during the opening salvo of what would be one of the largest invasions in US and World History.

IMDB - 1 win.


General
Apache.Warrior.2017.1080p.AMZN.WEB-DL.DDP5.1.H.264-NTb.mkv
Format : Matroska
Format version : Version 4 / Version 2
File size : 6.20 GiB
Duration : 1 h 28 min
Overall bit rate mode : Variable
Overall bit rate : 10.0 Mb/s
Encoded date : UTC 2018-05-10 15:27:58
Writing application : mkvmerge v23.0.0 ('The Bride Said No') 64-bit
Writing library : libebml v1.3.6 + libmatroska v1.4.9

Video
ID : 1
Format : AVC
Format/Info : Advanced Video Codec
Format profile : High@L4
Format settings : CABAC / 4 Ref Frames
Format settings, CABAC : Yes
Format settings, RefFrames : 4 frames
Codec ID : V_MPEG4/ISO/AVC
Duration : 1 h 28 min
Bit rate mode : Variable
Bit rate : 9 381 kb/s
Maximum bit rate : 15.0 Mb/s
Width : 1 920 pixels
Height : 1 080 pixels
Display aspect ratio : 16:9
Frame rate mode : Constant
Frame rate : 23.976 (24000/1001) FPS
Color space : YUV
Chroma subsampling : 4:2:0
Bit depth : 8 bits
Scan type : Progressive
Bits/(Pixel*Frame) : 0.189
Stream size : 5.80 GiB (94%)
Default : Yes
Forced : No
Color range : Limited
Color primaries : BT.709
Transfer characteristics : BT.709
Matrix coefficients : BT.709

Audio
ID : 2
Format : E-AC-3
Format/Info : Enhanced Audio Coding 3
Codec ID : A_EAC3
Duration : 1 h 28 min
Bit rate mode : Constant
Bit rate : 640 kb/s
Channel(s) : 6 channels
Channel positions : Front: L C R, Side: L R, LFE
Sampling rate : 48.0 kHz
Frame rate : 187.500 FPS (256 SPF)
Compression mode : Lossy
Stream size : 406 MiB (6%)
Language : English
Service kind : Complete Main
Default : Yes
Forced : No

Text #1
ID : 3
Format : UTF-8
Codec ID : S_TEXT/UTF8
Codec ID/Info : UTF-8 Plain Text
Duration : 1 h 24 min
Bit rate : 71 b/s
Count of elements : 1237
Stream size : 44.5 KiB (0%)
Language : English
Default : No
Forced : No

Text #2
ID : 4
Format : UTF-8
Codec ID : S_TEXT/UTF8
Codec ID/Info : UTF-8 Plain Text
Duration : 1 h 27 min
Bit rate : 76 b/s
Count of elements : 1324
Stream size : 49.4 KiB (0%)
Title : SDH
Language : English
Default : No
Forced : No


WEB-DL 1080p Screenshots

Apache Warrior (2017)

Apache Warrior (2017)

Apache Warrior (2017)

Apache Warrior (2017)

Apache Warrior (2017)

Apache Warrior (2017)


Come Visit My Blog (•‿•)