Nat.Geo. - Apollo Back to the Moon: Series 1 (2019)

Posted By: Tutorial
720p (HD) / HDTV
Nat.Geo. - Apollo Back to the Moon: Series 1 (2019)

Nat.Geo. - Apollo Back to the Moon: Series 1 (2019)
HDTV | 1280 x 720 | .MP4/AVC @ 3200 Kbps | 2x~44mn | 2.07 GB
Audio: English AAC 160 Kbps, 2 channels | Subs: English
Genre: Documentary

Directed by Franois Poms, this two-part documentary chronicles the epic adventure of the Apollo space program, which included both tragic setbacks and historic successes.

Part 1: Impossible Challenge
A chronicle of the Apollo space program; the first phase takes place against a backdrop of the Cold War, from the disaster of Apollo 1 to the triumph of the Apollo 8 mission.


Part 2: Ultimate Mission
The Apollo space program embraces tragic setbacks and historic success; the last stage includes the Apollo 11 space flight which landed the first two people on the Moon.

General
Complete name : Apollo.Back.to.the.Moon.Series.1.1of2.Impossible.Challenge.mp4
Format : MPEG-4
Format profile : Base Media
Codec ID : isom (isom)
File size : 1.04 GiB
Duration : 44 min 8 s
Overall bit rate mode : Variable
Overall bit rate : 3 362 kb/s
Encoded date : UTC 2019-07-11 13:51:34
Tagged date : UTC 2019-07-11 13:51:34

Video
ID : 1
Format : AVC
Format/Info : Advanced Video Codec
Format profile : High@L4.1
Format settings, CABAC : Yes
Format settings, ReFrames : 4 frames
Codec ID : avc1
Codec ID/Info : Advanced Video Coding
Duration : 44 min 8 s
Bit rate : 3 200 kb/s
Maximum bit rate : 18.8 Mb/s
Width : 1 280 pixels
Height : 720 pixels
Display aspect ratio : 16:9
Frame rate mode : Constant
Frame rate : 25.000 FPS
Color space : YUV
Chroma subsampling : 4:2:0
Bit depth : 8 bits
Scan type : Progressive
Bits/(Pixel*Frame) : 0.139
Stream size : 1 010 MiB (95%)
Title : Apollo.Back.to.the.Moon.Series.1.1of2.Impossible.Challenge.720p.HDTV.x264.AAC..org.mp4
Writing library : x264 core 130 r2273 b3065e6
Encoding settings : cabac=1 / ref=1 / deblock=1:0:0 / analyse=0x3:0x113 / me=hex / subme=2 / psy=1 / psy_rd=1.00:0.00 / mixed_ref=0 / me_range=16 / chroma_me=1 / trellis=0 / 8x8dct=1 / cqm=0 / deadzone=21,11 / fast_pskip=1 / chroma_qp_offset=0 / threads=6 / lookahead_threads=2 / sliced_threads=0 / nr=0 / decimate=1 / interlaced=0 / bluray_compat=0 / constrained_intra=0 / bframes=3 / b_pyramid=2 / b_adapt=1 / b_bias=0 / direct=1 / weightb=1 / open_gop=0 / weightp=1 / keyint=250 / keyint_min=25 / scenecut=40 / intra_refresh=0 / rc_lookahead=10 / rc=abr / mbtree=1 / bitrate=3200 / ratetol=1.0 / qcomp=0.60 / qpmin=0 / qpmax=69 / qpstep=4 / vbv_maxrate=62500 / vbv_bufsize=78125 / nal_hrd=none / ip_ratio=1.40 / aq=1:1.00
Encoded date : UTC 2019-07-11 10:57:30
Tagged date : UTC 2019-07-11 13:52:16
Color range : Limited
Color primaries : BT.709
Transfer characteristics : BT.709
Matrix coefficients : BT.709

Audio
ID : 2
Format : AAC
Format/Info : Advanced Audio Codec
Format profile : LC
Codec ID : 40
Duration : 44 min 8 s
Bit rate mode : Variable
Bit rate : 160 kb/s
Maximum bit rate : 317 kb/s
Channel(s) : 2 channels
Channel positions : Front: L R
Sampling rate : 48.0 kHz
Frame rate : 46.875 FPS (1024 spf)
Compression mode : Lossy
Stream size : 50.4 MiB (5%)
Title : Apollo.Back.to.the.Moon.Series.1.1of2.Impossible.Challenge.720p.HDTV.x264.AAC..org.mp4
Language : English
Encoded date : UTC 2019-07-11 13:52:12
Tagged date : UTC 2019-07-11 13:52:16

Text
ID : 3
Format : Timed Text
Codec ID : tx3g
Duration : 44 min 6 s
Bit rate mode : Variable
Bit rate : 153 b/s
Stream size : 49.3 KiB (0%)
Title : Apollo.Back.to.the.Moon.Series.1.1of2.Impossible.Challenge.720p.HDTV.x264.AAC..org.srt
Forced : No
Encoded date : UTC 2019-07-11 13:52:16
Tagged date : UTC 2019-07-11 13:52:16
Screenshots

Nat.Geo. - Apollo Back to the Moon: Series 1 (2019)

Nat.Geo. - Apollo Back to the Moon: Series 1 (2019)

Nat.Geo. - Apollo Back to the Moon: Series 1 (2019)

Welcome to my blog - daily update!

Nat.Geo. - Apollo Back to the Moon: Series 1 (2019)