BBC - Arctic Monkeys Live at the BBC (2018)

Posted By: notbanned
720p (HD) / WEBRip
BBC - Arctic Monkeys Live at the BBC (2018)

BBC - Arctic Monkeys Live at the BBC (2018)
WEBRip | 1280x720 | .MP4/AVC @ 2397 Kbps | 31 min 15 s | 634 MiB
Audio: English AAC 317 kbps, 2 channels | Subs: English
Genre: Documentary

Arctic Monkeys perform live for BBC Radio 1 at the legendary Maida Vale studios, with tracks from their new album Tranquillity Base Hotel & Casino, and classics from their back catalogue of hits.

General
Complete name : Arctic.Monkeys.Live.at.the.BBC.2018.720p.mp4
Format : MPEG-4
Format profile : Base Media / Version 2
Codec ID : mp42 (mp42/isom)
File size : 634 MiB
Duration : 31 min 15 s
Overall bit rate mode : Variable
Overall bit rate : 2 837 kb/s

Video
ID : 1
Format : AVC
Format/Info : Advanced Video Codec
Format profile : High@L4.1
Format settings, CABAC : Yes
Format settings, ReFrames : 5 frames
Codec ID : avc1
Codec ID/Info : Advanced Video Coding
Duration : 31 min 15 s
Source duration : 31 min 15 s
Bit rate : 2 397 kb/s
Width : 1 280 pixels
Height : 720 pixels
Display aspect ratio : 16:9
Frame rate mode : Constant
Frame rate : 25.000 FPS
Color space : YUV
Chroma subsampling : 4:2:0
Bit depth : 8 bits
Scan type : Progressive
Bits/(Pixel*Frame) : 0.104
Stream size : 536 MiB (84%)
Source stream size : 562 MiB (89%)
Writing library : x264 core 155 r2901 7d0ff22
Encoding settings : cabac=1 / ref=5 / deblock=1:-1:-1 / analyse=0x3:0x133 / me=umh / subme=2 / psy=1 / psy_rd=1.00:0.15 / mixed_ref=0 / me_range=24 / chroma_me=1 / trellis=0 / 8x8dct=1 / cqm=0 / deadzone=21,11 / fast_pskip=1 / chroma_qp_offset=0 / threads=12 / lookahead_threads=5 / sliced_threads=0 / nr=0 / decimate=1 / interlaced=0 / bluray_compat=0 / constrained_intra=0 / bframes=8 / b_pyramid=2 / b_adapt=2 / b_bias=0 / direct=3 / weightb=1 / open_gop=0 / weightp=1 / keyint=250 / keyint_min=25 / scenecut=40 / intra_refresh=0 / rc_lookahead=10 / rc=crf / mbtree=1 / crf=21.0 / qcomp=0.60 / qpmin=0 / qpmax=69 / qpstep=4 / vbv_maxrate=62500 / vbv_bufsize=78125 / crf_max=0.0 / nal_hrd=none / filler=0 / ip_ratio=1.40 / aq=1:1.00
Encoded date : UTC 2018-07-08 09:30:46
Tagged date : UTC 2018-07-08 09:30:50
Color range : Limited
Color primaries : BT.709
Transfer characteristics : BT.709
Matrix coefficients : BT.709

Audio
ID : 2
Format : AAC
Format/Info : Advanced Audio Codec
Format profile : LC
Codec ID : 40
Duration : 31 min 15 s
Bit rate mode : Constant
Bit rate : 317 kb/s
Channel(s) : 2 channels
Channel positions : Front: L R
Sampling rate : 48.0 kHz
Frame rate : 46.875 FPS (1024 spf)
Compression mode : Lossy
Stream size : 71.0 MiB (11%)
Language : English
Default : Yes
Alternate group : 1
Encoded date : UTC 2018-07-08 09:30:46
Tagged date : UTC 2018-07-08 09:30:50

Text
ID : 3
Format : Timed Text
Muxing mode : sbtl
Codec ID : tx3g
Duration : 30 min 18 s
Bit rate mode : Variable
Bit rate : 62 b/s
Stream size : 13.8 KiB (0%)
Language : English
Default : Yes
Forced : No
Alternate group : 2
Encoded date : UTC 2018-07-08 09:30:46
Tagged date : UTC 2018-07-08 09:30:46


Screenshots:

BBC - Arctic Monkeys Live at the BBC (2018)

BBC - Arctic Monkeys Live at the BBC (2018)

BBC - Arctic Monkeys Live at the BBC (2018)

BBC - Arctic Monkeys Live at the BBC (2018)