Tags
Language
Tags

BBC - Art on the BBC: The Many Faces of Picasso (2020)

Posted By: notbanned
720p (HD) / HDTV
BBC - Art on the BBC: The Many Faces of Picasso (2020)

BBC - Art on the BBC: The Many Faces of Picasso (2020)
HDTV | 1280x720 | .MP4/AVC @ 2450 Kbps | 58 min 52 s | 1.11 GiB
Audio: English AAC 128 kbps, 2 channels | Subs: English
Genre: Documentary

Picasso is known as the godfather of modern art. In this programme, art historian David Dibosa explores six decades of BBC archive to discover how television has influenced our understanding of him.

David reveals how film-makers have portrayed two different Picassos - the child genius who drew like a master and the adult who rejected his conventional talent in a quest to reflect the world, in ways that shattered all the rules.

He also finds that film-makers have long been fascinated by Picasso’s private life. A notorious womaniser, Picasso used his lovers as muses and left behind a trail of broken relationships.

General
Complete name : Art.on.the.BBC.The.Many.Faces.of.Picasso.720p.mp4
Format : MPEG-4
Format profile : Base Media / Version 2
Codec ID : mp42 (mp42/isom)
File size : 1.11 GiB
Duration : 58 min 52 s
Overall bit rate mode : Variable
Overall bit rate : 2 696 kb/s

Video
ID : 1
Format : AVC
Format/Info : Advanced Video Codec
Format profile : High@L4.1
Format settings, CABAC : Yes
Format settings, ReFrames : 5 frames
Codec ID : avc1
Codec ID/Info : Advanced Video Coding
Duration : 58 min 52 s
Source duration : 58 min 52 s
Bit rate : 2 450 kb/s
Width : 1 280 pixels
Height : 720 pixels
Display aspect ratio : 16:9
Frame rate mode : Constant
Frame rate : 50.000 FPS
Color space : YUV
Chroma subsampling : 4:2:0
Bit depth : 8 bits
Scan type : Progressive
Bits/(Pixel*Frame) : 0.053
Stream size : 1.01 GiB (91%)
Source stream size : 1.05 GiB (95%)
Encoding settings : cabac=1 / ref=5 / deblock=1:-1:-1 / analyse=0x3:0x113 / me=hex / subme=2 / psy=1 / psy_rd=1.00:0.15 / mixed_ref=0 / me_range=16 / chroma_me=1 / trellis=0 / 8x8dct=1 / cqm=0 / deadzone=21,11 / fast_pskip=1 / chroma_qp_offset=0 / threads=12 / lookahead_threads=4 / sliced_threads=0 / nr=0 / decimate=1 / interlaced=0 / bluray_compat=0 / constrained_intra=0 / bframes=5 / b_pyramid=2 / b_adapt=1 / b_bias=0 / direct=1 / weightb=1 / open_gop=0 / weightp=1 / keyint=500 / keyint_min=50 / scenecut=40 / intra_refresh=0 / rc_lookahead=10 / rc=crf / mbtree=1 / crf=18.0 / qcomp=0.60 / qpmin=0 / qpmax=69 / qpstep=4 / vbv_maxrate=62500 / vbv_bufsize=78125 / crf_max=0.0 / nal_hrd=none / filler=0 / ip_ratio=1.40 / aq=1:1.00
Encoded date : UTC 2020-02-10 08:19:26
Tagged date : UTC 2020-02-10 08:19:53
Color range : Limited
Color primaries : BT.709
Transfer characteristics : BT.709
Matrix coefficients : BT.709

Audio
ID : 2
Format : AAC
Format/Info : Advanced Audio Codec
Format profile : LC
Codec ID : 40
Duration : 58 min 52 s
Bit rate mode : Variable
Bit rate : 128 kb/s
Maximum bit rate : 131 kb/s
Channel(s) : 2 channels
Channel positions : Front: L R
Sampling rate : 48.0 kHz
Frame rate : 46.875 FPS (1024 spf)
Compression mode : Lossy
Stream size : 53.9 MiB (5%)
Language : English
Default : Yes
Alternate group : 1
Encoded date : UTC 2020-02-10 08:19:26
Tagged date : UTC 2020-02-10 08:19:53t

Text
ID : 3
Format : Timed Text
Muxing mode : sbtl
Codec ID : tx3g
Duration : 58 min 9 s
Bit rate mode : Variable
Bit rate : 110 b/s
Stream size : 46.7 KiB (0%)
Language : English
Default : Yes
Forced : No
Alternate group : 2
Encoded date : UTC 2020-02-10 08:19:26
Tagged date : UTC 2020-02-10 08:19:26


Screenshots:

BBC - Art on the BBC: The Many Faces of Picasso (2020)

BBC - Art on the BBC: The Many Faces of Picasso (2020)

BBC - Art on the BBC: The Many Faces of Picasso (2020)

BBC - Art on the BBC: The Many Faces of Picasso (2020)