Arturo, Millonario Irresistible (2011)

Posted By: Fanthom
Arturo, Millonario Irresistible (2011)

Arturo: Millonario Irresistible (2011)
DVD-Rip | AVI/XviD 756 Kbps | MP3 128kbps | 23.976 fps | 640x352 | Español (Latino) | 1h 50mn | 765.12MB | Genero: Comedia, Remake

SINOPSIS:
Arthur es un joven que lleva una vida demasiado superficial y alocada (demasiadas fiestas, mujeres y alcohol), pero no tendrá más remedio que cambiar si quiere recibir una impresionante herencia. El único requisito para no perderla es que tendrá que casarse. A partir de entonces inicia un extraño periplo para encontrar a la mujer de sus sueños. ¿Podrá abandonar la vida que llevaba antes o la podrá amoldar a su nueva vida de futuro marido?



FICHA TÉCNICA:
TÍTULO ORIGINAL: Arthur
OTROS TÍTULOS: Arturo: Millonario Irresistible / Arthur, El Soltero Se Oro
AÑO: 2011
DURACIÓN: 110 min.
PAÍS: USA
DIRECTOR: Jason Winer
GUIÓN: Peter Baynham, Steve Gordon
MÚSICA: Theodore Shapiro
FOTOGRAFÍA: Uta Briesewitz
REPARTO: Russell Brand, Helen Mirren, Jennifer Garner, Greta Gerwig, Nick Nolte, Luis Guzmán
PRODUCTORA: BenderSpink / Langley Park Productions / Morra / Brezner / Steinberg and Tenenbaum Entertainment (MBST)
GÉNERO: Comedia | Remake

NFO:
General:
Nombre Original: Arthur
Formato: AVI
Formato/Info: Audio Video Interleave
Tamaño: 703 MiB
Duración: 1h 49mn
Bit Rate: 893 Kbps

Video:
ID: 0
Format: MPEG-4 Visual
Format profile: Advanced Simple@L5
Format settings, BVOP: 2
Format settings, QPel: No
Format settings, GMC: No warppoints
Format settings, Matrix: Default (H.263)
Codec ID: XVID
Codec ID/Hint: XviD
Duration: 1h 49mn
Bit rate: 756 Kbps
Width: 640 pixels
Height: 352 pixels
Display aspect ratio: 16:9
Frame rate: 23.976 fps
Color space: YUV
Chroma subsampling: 4:2:0
Bit depth: 8 bits
Scan type: Progressive
Compression mode : Lossy
Bits/(Pixel*Frame) : 0.140
Stream size: 595 MiB (85%)
Writing library: XviD 1.2.1 (UTC 2008-12-04)

Audio:
ID: 1
Format: MPEG Audio
Format version: Version 1
Format profile : Layer 3
Mode: Joint stereo
Mode extension: MS Stereo
Codec ID: 55
Codec ID/Hint: MP3
Duration: 1h 49mn
Bit rate mode: Constant
Bit rate : 128 Kbps
Channel(s): 2 channels
Sampling rate: 48.0 KHz
Compression mode : Lossy
Stream size: 101 MiB (14%)
Alignment: Aligned on interleaves
Interleave, duration: 42 ms (1.00 video frame)
Interleave, preload duration: 504 ms
Writing library: LAME3.98r
Encoding settings: -m j -V 4 -q 2 -lowpass 17 -b 128


IMDB RATING: 5.4/10

Arturo, Millonario Irresistible (2011)


SCREENSHOTS:


Arturo, Millonario Irresistible (2011)

Arturo, Millonario Irresistible (2011)

Arturo, Millonario Irresistible (2011)

Arturo, Millonario Irresistible (2011)

Arturo, Millonario Irresistible (2011)


DESCARGAR:

(+ 10% Recovery)

File 1:
–> Filesonic
–> Fileserve

File 2:
–> Filesonic
–> Fileserve

MUESTRA:
–> Filesonic
–> Fileserve

CONTRASEÑA para unRAR: aVaXHoMe.Ws.2011

NOTA:"No Mirrors" - "NO Copias"