Assassination Games (2011)

Posted By: FenixN
Assassination Games (2011)

Assassination Games (2011)
PPVRip | AVI / XviD, 805 kb/s | 544x400 | 01:40:05 | English: MP3, 160 kb/s (2 ch) | 695 mb
Genre: Action, Thriller | USA

Brazil and Roland Flint are the two best assassins in the world-but unknown to each other. While Flint is a master sharpshooter, Brazil is equally skilled with a knife. These two rival assassins form an uneasy alliance to take down the head of a drug cartel, which is backed by the DEA.

imdb: 8/10 (47 votes)

Format : AVI
Format/Info : Audio Video Interleave
File size : 695 MiB
Duration : 1h 40mn
Overall bit rate : 971 Kbps

Video
ID : 0
Format : MPEG-4 Visual
Format profile : Advanced Simple@L5
Format settings, BVOP : 1
Format settings, QPel : No
Format settings, GMC : No warppoints
Format settings, Matrix : Default (H.263)
Muxing mode : Packed bitstream
Codec ID : XVID
Codec ID/Hint : XviD
Duration : 1h 40mn
Bit rate : 805 Kbps
Width : 544 pixels
Height : 400 pixels
Display aspect ratio : 4:3
Frame rate : 23.976 fps
Color space : YUV
Chroma subsampling : 4:2:0
Bit depth : 8 bits
Scan type : Progressive
Compression mode : Lossy
Bits/(Pixel*Frame) : 0.154
Stream size : 576 MiB (83%)
Writing library : XviD 1.2.1 (UTC 2008-12-04)

Audio
ID : 1
Format : MPEG Audio
Format version : Version 1
Format profile : Layer 3
Mode : Joint stereo
Codec ID : 55
Codec ID/Hint : MP3
Duration : 1h 40mn
Bit rate mode : Constant
Bit rate : 160 Kbps
Channel(s) : 2 channels
Sampling rate : 48.0 KHz
Compression mode : Lossy
Stream size : 115 MiB (16%)
Alignment : Aligned on interleaves
Interleave, duration : 167 ms (4.00 video frames)
Interleave, preload duration : 216 ms
Title : Assassination Games (All Day)[2011-08-03-18-00-55] Tc0 L2 2ch 48 160 DELAY 0ms
Writing library : LAME3.98r
Encoding settings : -m j -V 4 -q 2 -lowpass 17.5 -b 160


screenshot
Assassination Games (2011)

Assassination Games (2011)

Assassination Games (2011)

Assassination Games (2011)


Welcome to the best movies collection (English, German, French language), best software, best eLearning video and many-many more: LINK
Do not forget to check my blog! Updated regularly!