Tags
Language
Tags
December 2022
Su Mo Tu We Th Fr Sa
27 28 29 30 1 2 3
4 5 6 7 8 9 10
11 12 13 14 15 16 17
18 19 20 21 22 23 24
25 26 27 28 29 30 31

Asylum: Twisted Horror & Fantasy Tales (2020)

Posted By: Tavaz
720p (HD) / BDRip IMDb
Asylum: Twisted Horror & Fantasy Tales (2020)

Asylum: Twisted Horror & Fantasy Tales (2020)
BDRip | MKV | 1280x720 | English | H264 @ 2560 kbps | AC-3 @ 448 kbps | 1 h 57 min | 2.46 GiB
Subtitles: English
Genre: Comedy, Horror, Science Fiction

Brandon prepares to give his last stand-up comedy show. As his stories and jokes pass, the public begins to cheer up. But at that precise moment Brandon will realize that these stories have a strong relationship with his past. More than he imagines.

aa6a25b1214a166a20971eb6475404ae.mkv (2.5 GB)



General
Unique ID : 223923874234016222859002987771972157258 (0xA8762B620FBCAB8262AD70093A5DFF4A)
Complete name : ./aa6a25b1214a166a20971eb6475404ae.mkv
Format : Matroska
Format version : Version 4 / Version 2
File size : 2.46 GiB
Duration : 1 h 57 min
Overall bit rate : 3 009 kb/s
Movie name : Asylum.Twisted.Horror.and.Fantasy.Tales.2020.720p.BluRay.x264-x0r
Encoded date : UTC 2021-03-05 17:57:26
Writing application : mkvmerge v7.7.0 ('Six Voices') 64bit built on Mar 1 2015 01:50:05
Writing library : libebml v1.3.1 + libmatroska v1.4.2

Video
ID : 1
Format : AVC
Format/Info : Advanced Video Codec
Format profile : High@L4.1
Format settings : CABAC / 8 Ref Frames
Format settings, CABAC : Yes
Format settings, RefFrames : 8 frames
Codec ID : V_MPEG4/ISO/AVC
Duration : 1 h 57 min
Bit rate : 2 560 kb/s
Width : 1 280 pixels
Height : 720 pixels
Display aspect ratio : 16:9
Frame rate mode : Constant
Frame rate : 24.000 FPS
Color space : YUV
Chroma subsampling : 4:2:0
Bit depth : 8 bits
Scan type : Progressive
Bits/(Pixel*Frame) : 0.116
Stream size : 2.09 GiB (85%)
Writing library : x264 core 155 r2917 0a84d98
Encoding settings : cabac=1 / ref=8 / deblock=1:-2:-2 / analyse=0x3:0x133 / me=umh / subme=9 / psy=1 / psy_rd=1.00:0.25 / mixed_ref=1 / me_range=24 / chroma_me=1 / trellis=2 / 8x8dct=1 / cqm=0 / deadzone=21,11 / fast_pskip=1 / chroma_qp_offset=-4 / threads=22 / lookahead_threads=2 / sliced_threads=0 / nr=0 / decimate=1 / interlaced=0 / bluray_compat=0 / constrained_intra=0 / bframes=4 / b_pyramid=2 / b_adapt=2 / b_bias=0 / direct=3 / weightb=1 / open_gop=0 / weightp=2 / keyint=240 / keyint_min=24 / scenecut=40 / intra_refresh=0 / rc_lookahead=120 / rc=2pass / mbtree=1 / bitrate=2560 / ratetol=1.0 / qcomp=0.60 / qpmin=0 / qpmax=69 / qpstep=4 / cplxblur=20.0 / qblur=0.5 / vbv_maxrate=20000 / vbv_bufsize=25000 / nal_hrd=none / filler=0 / ip_ratio=1.40 / aq=1:1.00
Language : English
Default : Yes
Forced : No
Color range : Limited
Color primaries : BT.709
Transfer characteristics : BT.709
Matrix coefficients : BT.709

Audio
ID : 2
Format : AC-3
Format/Info : Audio Coding 3
Format settings, Endianness : Big
Codec ID : A_AC3
Duration : 1 h 57 min
Bit rate mode : Constant
Bit rate : 448 kb/s
Channel(s) : 6 channels
Channel positions : Front: L C R, Side: L R, LFE
Sampling rate : 48.0 kHz
Frame rate : 31.250 FPS (1536 SPF)
Bit depth : 16 bits
Compression mode : Lossy
Delay relative to video : -5 ms
Stream size : 375 MiB (15%)
Title : Surround
Language : English
Service kind : Complete Main
Default : Yes
Forced : No

Text
ID : 3
Format : UTF-8
Codec ID : S_TEXT/UTF8
Codec ID/Info : UTF-8 Plain Text
Duration : 1 h 54 min
Bit rate : 35 b/s
Count of elements : 1408
Stream size : 30.0 KiB (0%)
Language : English
Default : Yes
Forced : No

Menu
00:00:00.000 : :Chapter 1
00:09:01.667 : :Chapter 2
00:18:42.292 : :Chapter 3
00:27:15.833 : :Chapter 4
00:35:51.958 : :Chapter 5
00:46:05.833 : :Chapter 6
00:54:13.125 : :Chapter 7
01:03:24.708 : :Chapter 8
01:13:05.083 : :Chapter 9
01:21:55.292 : :Chapter 10
01:30:49.958 : :Chapter 11
01:42:08.042 : :Chapter 12
01:44:13.042 : :Chapter 13





Asylum: Twisted Horror & Fantasy Tales (2020)


Asylum: Twisted Horror & Fantasy Tales (2020)


Asylum: Twisted Horror & Fantasy Tales (2020)


Asylum: Twisted Horror & Fantasy Tales (2020)


Asylum: Twisted Horror & Fantasy Tales (2020)