Atomic Africa: Clean Energy's Dirty Secrets (2013)

Posted By: notbanned
Atomic Africa: Clean Energy's Dirty Secrets (2013)

Atomic Africa: Clean Energy's Dirty Secrets (2013)
WEBRip | 768x432 | .MKV/AVC @ 1336 Kbps | 52min 10s | 535 MiB
Audio: English AAC 96 kbps, 2 channels | Subs: None
Genre: Documentary

Africa's development is being held back by poor infrastructure and undersized power plants. Countries like Uganda can only produce only 1/4 of the energy needed, leading to daily power cuts with disastrous economic impacts. It's a golden opportunity for nuclear giants who lobby aggressively for more power plants in Africa. But how safe are these new reactors? And what do they mean for the locals?
More info


General
Unique ID : 230296873055624584458584296534986581004 (0xAD41907BF8BE65E6A857AF7A3145E40C)
Complete name : Atomic.Africa.Clean.Energys.Dirty.Secrets.WEB.mkv
Format : Matroska
Format version : Version 4 / Version 2
File size : 535 MiB
Duration : 52 min 10 s
Overall bit rate : 1 435 kb/s

Video
ID : 1
Format : AVC
Format/Info : Advanced Video Codec
Format profile : Main@L3
Format settings, CABAC : Yes
Format settings, ReFrames : 4 frames
Codec ID : V_MPEG4/ISO/AVC
Duration : 52 min 9 s
Bit rate : 1 336 kb/s
Nominal bit rate : 1 404 kb/s
Width : 768 pixels
Height : 432 pixels
Display aspect ratio : 16:9
Frame rate mode : Constant
Frame rate : 25.000 FPS
Color space : YUV
Chroma subsampling : 4:2:0
Bit depth : 8 bits
Scan type : Progressive
Bits/(Pixel*Frame) : 0.161
Stream size : 499 MiB (93%)
Writing library : x264 core 135 r2345 f0c1c53
Encoding settings : cabac=1 / ref=1 / deblock=1:-1:-1 / analyse=0x1:0x111 / me=hex / subme=2 / psy=1 / psy_rd=1.00:0.15 / mixed_ref=0 / me_range=16 / chroma_me=1 / trellis=0 / 8x8dct=0 / cqm=0 / deadzone=21,11 / fast_pskip=1 / chroma_qp_offset=0 / threads=24 / lookahead_threads=3 / sliced_threads=0 / nr=0 / decimate=1 / interlaced=0 / bluray_compat=0 / constrained_intra=0 / bframes=3 / b_pyramid=2 / b_adapt=1 / b_bias=0 / direct=1 / weightb=1 / open_gop=0 / weightp=1 / keyint=75 / keyint_min=38 / scenecut=0 / intra_refresh=0 / rc_lookahead=10 / rc=cbr / mbtree=1 / bitrate=1404 / ratetol=1.0 / qcomp=0.60 / qpmin=0 / qpmax=69 / qpstep=4 / vbv_maxrate=1404 / vbv_bufsize=2800 / nal_hrd=none / ip_ratio=1.40 / aq=1:1.00
Default : Yes
Forced : No

Audio
ID : 2
Format : AAC
Format/Info : Advanced Audio Codec
Format profile : LC
Codec ID : A_AAC
Duration : 52 min 10 s
Bit rate : 96.0 kb/s
Channel(s) : 2 channels
Channel positions : Front: L R
Sampling rate : 48.0 kHz
Frame rate : 46.875 FPS (1024 spf)
Compression mode : Lossy
Delay relative to video : -80 ms
Stream size : 35.8 MiB (7%)
Default : Yes
Forced : No


Screenshots:

Atomic Africa: Clean Energy's Dirty Secrets (2013)

Atomic Africa: Clean Energy's Dirty Secrets (2013)

Atomic Africa: Clean Energy's Dirty Secrets (2013)

Atomic Africa: Clean Energy's Dirty Secrets (2013)