Tags
Language
Tags

Awake: The Life of Yogananda (2014)

Posted By: notbanned
720p (HD) / WEB-DL IMDb
Awake: The Life of Yogananda (2014)

Awake: The Life of Yogananda (2014)
WEB-DL | 1280x720 | .MKV/AVC @ 4613 Kbps | 1 h 26 min | 2.93 GiB
Audio: English EAC3 224 kbps, 2 channels | Subs: English
Genre: Documentary

Unique biopic about Yogananda, author of The Autobiography of a Yogi. In the 1920s, he brought Hindu spirituality to the West. This tells the story of his life and influence on yoga, religion and science, combining re-enactment, interviews, and verité.

General
Unique ID : 230669020273785864967939557399540259533 (0xAD893CC23BE4F3879C602453D56BDACD)
Complete name : Awake.The.Life.of.Yogananda.2014.720p.mkv
Format : Matroska
Format version : Version 4 / Version 2
File size : 2.93 GiB
Duration : 1 h 26 min
Overall bit rate : 4 839 kb/s

Video
ID : 1
Format : AVC
Format/Info : Advanced Video Codec
Format profile : High@L3.1
Format settings, CABAC : Yes
Format settings, ReFrames : 4 frames
Codec ID : V_MPEG4/ISO/AVC
Duration : 1 h 26 min
Bit rate mode : Constant
Bit rate : 4 613 kb/s
Nominal bit rate : 6 000 kb/s
Width : 1 280 pixels
Height : 720 pixels
Display aspect ratio : 16:9
Frame rate mode : Constant
Frame rate : 23.976 (24000/1001) FPS
Color space : YUV
Chroma subsampling : 4:2:0
Bit depth : 8 bits
Scan type : Progressive
Bits/(Pixel*Frame) : 0.209
Stream size : 2.79 GiB (95%)
Default : Yes
Forced : No
Color range : Limited
Color primaries : BT.709
Transfer characteristics : BT.709
Matrix coefficients : BT.709

Audio
ID : 2
Format : E-AC-3
Format/Info : Enhanced Audio Coding 3
Format settings, Endianness : Big
Codec ID : A_EAC3
Duration : 1 h 26 min
Bit rate mode : Constant
Bit rate : 224 kb/s
Channel(s) : 2 channels
Channel positions : Front: L R
Sampling rate : 48.0 kHz
Frame rate : 187.500 FPS (256 spf)
Compression mode : Lossy
Stream size : 139 MiB (5%)
Language : English
Service kind : Complete Main
Default : Yes
Forced : No

Text
ID : 3
Format : UTF-8
Codec ID : S_TEXT/UTF8
Codec ID/Info : UTF-8 Plain Text
Duration : 1 h 24 min
Bit rate : 72 b/s
Count of elements : 1152
Stream size : 44.8 KiB (0%)
Title : English [CC](SDH)
Language : English
Default : Yes
Forced : No


Screenshots:

Awake: The Life of Yogananda (2014)

Awake: The Life of Yogananda (2014)

Awake: The Life of Yogananda (2014)

Awake: The Life of Yogananda (2014)