BBC - Earth Story (1998)

Posted By: Polik88
BBC - Earth Story (1998)

BBC - Earth Story (1998)
DVDRip | English | AVI/XVID 25.000 fps 987 Kbps | 624x352 | MP3 128 Kbps 48.0 khz | 8x48mn | 8x388 MB
Genre: Documentary

Earth Story is a 1998 BBC documentary series on geology presented by Aubrey Manning. Earth Story unravels the secrets of our planet and brings it alive. The series took three years to make, cost 3 million and was filmed all over the world, from the craters of active volcanoes to the ocean floor. Where the cameras could not go, in both time and space, the latest animation techniques take over. Combining live-action footage with state-of-the-art computer graphics which enable us to travel back and forwards through time, this is a fantastic journey of scientific discovery and a comprehensive history of life - in all its forms - on the planet.
General
Complete name : Earth_Story_1of8_The_Time_Travellers.avi
Format : AVI
Format/Info : Audio Video Interleave
File size : 388 MiB
Duration : 48mn 7s
Overall bit rate : 1 128 Kbps
Writing application : Lavf54.25.105

Video
ID : 0
Format : MPEG-4 Visual
Format profile : Simple@L3
Format settings, BVOP : No
Format settings, QPel : No
Format settings, GMC : No warppoints
Format settings, Matrix : Default (H.263)
Codec ID : XVID
Codec ID/Hint : XviD
Duration : 48mn 7s
Bit rate : 987 Kbps
Width : 624 pixels
Height : 352 pixels
Display aspect ratio : 16:9
Frame rate : 25.000 fps
Color space : YUV
Chroma subsampling : 4:2:0
Bit depth : 8 bits
Scan type : Progressive
Compression mode : Lossy
Bits/(Pixel*Frame) : 0.180
Stream size : 340 MiB (88%)
Writing library : XviD 64

Audio
ID : 1
Format : MPEG Audio
Format version : Version 1
Format profile : Layer 3
Mode : Joint stereo
Codec ID : 55
Codec ID/Hint : MP3
Duration : 48mn 7s
Bit rate mode : Constant
Bit rate : 128 Kbps
Channel(s) : 2 channels
Sampling rate : 48.0 KHz
Compression mode : Lossy
Stream size : 44.1 MiB (11%)
Alignment : Aligned on interleaves
Interleave, duration : 24 ms (0.60 video frame)
Writing library : LAME3.99.5

Screenshots

BBC - Earth Story (1998)

BBC - Earth Story (1998)

BBC - Earth Story (1998)

no mirrors please, Follow The Rules
Visit Polik88 Blog Here
no password