BBC - Inside the Factory Series 3: Part 4 Fish Fingers (2017)

Posted By: Tavaz
720p (HD) / HDTV
BBC - Inside the Factory Series 3: Part 4 Fish Fingers (2017)

BBC - Inside the Factory Series 3: Part 4 Fish Fingers (2017)
HDTV | MOV | 1280x720 | English | H264 @ 2757 kbps | AAC @ 159 kbps | 58 min 44 s | 1.20 GiB
Genre: Documentary

Gregg Wallace explores the Grimsby factory that processes 165 tonnes of fish a week and produces 80,000 cod fish fingers every day. Cod arrives at the factory as compressed blocks of frozen fish. The blocks weigh exactly 7.484 kilos, which is a standardised measure in every fish factory right across the world. Gregg watches as each block is cut into 168 naked fish fingers which are then floured, battered and breaded, ready for a quick 45-second trip through the fryer. He also helps take delivery of 25 tonnes of liquid nitrogen, used to flash freeze the fingers at minus 15 degrees C. But Gregg is amazed to discover that the fish inside the finger remains frozen through every stage of production, right up to the moment you cook it at home.

BBC.Inside.The.Factory.Series.3.Fish.Fingers.720p.HDTV.x264.AAC.MVGroup.org.mp4 (1.2 GB)



General
Complete name : ./BBC.Inside.The.Factory.Series.3.Fish.Fingers.720p.HDTV.x264.AAC.MVGroup.org.mp4
Format : MPEG-4
Format profile : Base Media
Codec ID : isom (isom)
File size : 1.20 GiB
Duration : 58 min 44 s
Overall bit rate mode : Variable
Overall bit rate : 2 930 kb/s
Encoded date : UTC 2018-01-03 21:47:25
Tagged date : UTC 2018-01-03 21:47:25
Writing application : My MP4Box GUI 0.6.0.6 <http://my-mp4box-gui.zymichost.com>

Video
ID : 1
Format : AVC
Format/Info : Advanced Video Codec
Format profile : High@L4.1
Format settings : CABAC / 4 Ref Frames
Format settings, CABAC : Yes
Format settings, RefFrames : 4 frames
Codec ID : avc1
Codec ID/Info : Advanced Video Coding
Duration : 58 min 44 s
Bit rate : 2 757 kb/s
Maximum bit rate : 11.9 Mb/s
Width : 1 280 pixels
Height : 720 pixels
Display aspect ratio : 16:9
Frame rate mode : Constant
Frame rate : 25.000 FPS
Color space : YUV
Chroma subsampling : 4:2:0
Bit depth : 8 bits
Scan type : Progressive
Bits/(Pixel*Frame) : 0.120
Stream size : 1.13 GiB (94%)
Title : BBC.Inside.The.Factory.Series.3.Fish.Fingers.720p.HDTV.x264.AAC.MVGroup.org.mp4
Writing library : x264 core 130 r2273 b3065e6
Encoding settings : cabac=1 / ref=1 / deblock=1:0:0 / analyse=0x3:0x3 / me=dia / subme=1 / psy=1 / psy_rd=1.00:0.00 / mixed_ref=0 / me_range=16 / chroma_me=1 / trellis=0 / 8x8dct=1 / cqm=0 / deadzone=21,11 / fast_pskip=1 / chroma_qp_offset=0 / threads=6 / lookahead_threads=1 / sliced_threads=0 / nr=0 / decimate=1 / interlaced=0 / bluray_compat=0 / constrained_intra=0 / bframes=3 / b_pyramid=2 / b_adapt=1 / b_bias=0 / direct=1 / weightb=1 / open_gop=0 / weightp=1 / keyint=250 / keyint_min=25 / scenecut=40 / intra_refresh=0 / rc_lookahead=0 / rc=abr / mbtree=0 / bitrate=2757 / ratetol=1.0 / qcomp=0.60 / qpmin=0 / qpmax=69 / qpstep=4 / vbv_maxrate=62500 / vbv_bufsize=78125 / nal_hrd=none / ip_ratio=1.40 / pb_ratio=1.30 / aq=1:1.00
Encoded date : UTC 2018-01-03 20:54:03
Tagged date : UTC 2018-01-03 21:47:46
Color range : Limited
Color primaries : BT.709
Transfer characteristics : BT.709
Matrix coefficients : BT.709

Audio
ID : 2
Format : AAC
Format/Info : Advanced Audio Codec
Format profile : LC
Codec ID : mp4a-40-2
Duration : 58 min 44 s
Bit rate mode : Variable
Bit rate : 160 kb/s
Maximum bit rate : 215 kb/s
Channel(s) : 2 channels
Channel positions : Front: L R
Sampling rate : 48.0 kHz
Frame rate : 46.875 FPS (1024 SPF)
Compression mode : Lossy
Stream size : 67.2 MiB (5%)
Title : BBC.Inside.The.Factory.Series.3.Fish.Fingers.720p.HDTV.x264.AAC.MVGroup.org.mp4
Language : English
Encoded date : UTC 2018-01-03 21:47:41
Tagged date : UTC 2018-01-03 21:47:46

Text
ID : 3
Format : Timed Text
Codec ID : tx3g
Duration : 58 min 13 s
Bit rate mode : Variable
Bit rate : 231 b/s
Stream size : 98.4 KiB (0%)
Title : BBC.Inside.The.Factory.Series.3.Fish.Fingers.720p.HDTV.x264.AAC.MVGroup.org.srt
Forced : No
Encoded date : UTC 2018-01-03 21:47:46
Tagged date : UTC 2018-01-03 21:47:46





BBC - Inside the Factory Series 3: Part 4 Fish Fingers (2017)


BBC - Inside the Factory Series 3: Part 4 Fish Fingers (2017)


BBC - Inside the Factory Series 3: Part 4 Fish Fingers (2017)


BBC - Inside the Factory Series 3: Part 4 Fish Fingers (2017)