Tags
Language
Tags

BBC - A Dangerous Dynasty: House of Assad (2018)

Posted By: notbanned
720p (HD) / HDTV IMDb
BBC - A Dangerous Dynasty: House of Assad (2018)

BBC - A Dangerous Dynasty: House of Assad (2018)
HDTV | 1280x720 | .MKV/AVC @ 2186 Kbps | 3x~59min | 2.80 GiB
Audio: English AAC 132 kbps, 2 channels | Subs: English
Genre: Documentary

Three-part series delving into the story of the Assad dynasty.

Part 1.
Right at the centre of it are President Bashar and his wife Asma, who met and fell in love in London. Over a decade ago, they were being welcomed with open arms in Britain. Today, they are entrenched in a brutal war that has led to some of the most horrifying crimes of modern times. Episode one follows Bashar and Asma's journey to become president and first lady of Syria against the backdrop of a troubled and suspicious family.

Part 2.
The former eye doctor is now president and his British-born wife is first lady, but they face problems on all sides and their regime is accused of killing a political enemy.

Part 3.
While his wife appears in Vogue magazine, the Syrian president must decide how to act as Arab Spring protests reach Syria's streets. The brutality this unleashes shocks the world.

General
Unique ID : 178296446653474661258740800904440639351 (0x8622A584E041643D161891994E60EF77)
Complete name : BBC.A.Dangerous.Dynasty.House.of.Assad.1of3.720p.mkv
Format : Matroska
Format version : Version 4 / Version 2
File size : 981 MiB
Duration : 59 min 3 s
Overall bit rate : 2 323 kb/s

Video
ID : 1
Format : AVC
Format/Info : Advanced Video Codec
Format profile : High@L3.1
Format settings, CABAC : Yes
Format settings, ReFrames : 4 frames
Codec ID : V_MPEG4/ISO/AVC
Duration : 59 min 3 s
Bit rate : 2 186 kb/s
Width : 1 280 pixels
Height : 720 pixels
Display aspect ratio : 16:9
Frame rate mode : Constant
Frame rate : 25.000 FPS
Color space : YUV
Chroma subsampling : 4:2:0
Bit depth : 8 bits
Scan type : Progressive
Bits/(Pixel*Frame) : 0.095
Stream size : 923 MiB (94%)
Encoding settings : cabac=1 / ref=4 / deblock=1:0:0 / analyse=0x3:0x113 / me=umh / subme=9 / psy=1 / psy_rd=1.00:0.00 / mixed_ref=1 / me_range=24 / chroma_me=1 / trellis=1 / 8x8dct=1 / cqm=0 / deadzone=21,11 / fast_pskip=0 / chroma_qp_offset=-2 / threads=18 / lookahead_threads=2 / sliced_threads=0 / nr=0 / decimate=1 / interlaced=0 / bluray_compat=0 / constrained_intra=0 / bframes=6 / b_pyramid=2 / b_adapt=2 / b_bias=0 / direct=1 / weightb=1 / open_gop=0 / weightp=2 / keyint=250 / keyint_min=25 / scenecut=40 / intra_refresh=0 / rc_lookahead=40 / rc=crf / mbtree=1 / crf=20.0 / qcomp=0.60 / qpmin=0 / qpmax=69 / qpstep=4 / ip_ratio=1.40 / aq=1:1.00
Language : English
Default : Yes
Forced : No
Color range : Limited
Color primaries : BT.709
Transfer characteristics : BT.709
Matrix coefficients : BT.709

Audio
ID : 2
Format : AAC
Format/Info : Advanced Audio Codec
Format profile : LC
Codec ID : A_AAC
Duration : 59 min 3 s
Bit rate : 132 kb/s
Channel(s) : 2 channels
Channel positions : Front: L R
Sampling rate : 48.0 kHz
Frame rate : 46.875 FPS (1024 spf)
Compression mode : Lossy
Delay relative to video : 9 ms
Stream size : 56.9 MiB (6%)
Language : English
Default : Yes
Forced : No

Text
ID : 3
Format : UTF-8
Codec ID : S_TEXT/UTF8
Codec ID/Info : UTF-8 Plain Text
Duration : 58 min 24 s
Bit rate : 65 b/s
Count of elements : 674
Stream size : 28.1 KiB (0%)
Language : English
Default : No
Forced : No


Screenshots:

BBC - A Dangerous Dynasty: House of Assad (2018)

BBC - A Dangerous Dynasty: House of Assad (2018)

BBC - A Dangerous Dynasty: House of Assad (2018)

BBC - A Dangerous Dynasty: House of Assad (2018)