Please register here if you want to download anything!

If domain in your address bar is different from the list below
PLEASE LEAVE THAT SITE IMMEDIATELY
❗IT'S A DANGEROUS FAKE❗



Spicy Magazines for Men! ;-)

BBC - Animal Babies: First Year on Earth (2019)

Posted By: notbanned
1080p (FullHD) / HDTV IMDb
BBC - Animal Babies: First Year on Earth (2019)

BBC - Animal Babies: First Year on Earth (2019)
HDTV | 1920x1080 | .MKV/AVC @ 3420 Kbps | 3x~59min | 4.63 GiB
Audio: English AAC 137 kbps, 2 channels | Subs: English
Genre: Documentary

Cameras follow six baby animals as they learn the basic skills needed to face the challenges of surviving their first year on Earth.
Part 1:
In Kenya, a new-born elephant calf Safina is learning how to keep up with her fast moving herd. In Sri Lanka, one-week-old Jazir has to quickly learn the ropes of a primate society that is enmeshed with the world of people. At the edge of the Arctic, five-week-old fox cubs must learn to hunt before their siblings beat them to limited food. And in Uganda, an eight-week-old mountain gorilla has to cling on tight to survive the ups and downs of forest life. All six babies must learn the most basic of skills to thrive - and for some animals, to even survive.

Part 2:
In California, a three-month-old sea otter pup has to learn what is safe to eat in a world enmeshed with humans. In Sri Lanka, a seven-month-old macaque is forced by his mother to toughen up to stay on top. And in Kenya, a five-month-old elephant has a limited window to meet and bond with new families in order to survive in an increasingly dangerous world. The animal babies are rapidly growing into their abilities, but every day brings new challenges to their success.

Part 3:
As six animal babies approach the end of their first year on Earth, they must take on the most complex challenges of their lives. One of our closest cousins, a mountain gorilla infant, must learn the co-ordination to roam free in a tiny fragment of forest. In Iceland, an Arctic fox cub rejected by his mother must learn where to find food for the first time. And in Kenya, spotted hyena twin sisters must roam a territory they share with the biggest threat to their lives – lions. Whether breaking ties or building bonds all the babies must learn for themselves how to stay healthy and safe.


General
Unique ID : 70375421609937670554221602380923194142 (0x34F1D02CBE91D2C9D055B5BD5276CB1E)
Complete name : BBC.Animal.Bbs.First.Year.on.Earth.1of3.1080p.mkv
Format : Matroska
Format version : Version 4 / Version 2
File size : 1.47 GiB
Duration : 59 min 2 s
Overall bit rate : 3 560 kb/s

Video
ID : 1
Format : HEVC
Format/Info : High Efficiency Video Coding
Format profile : Main 10@L4@Main
Codec ID : V_MPEGH/ISO/HEVC
Duration : 59 min 2 s
Bit rate : 3 420 kb/s
Width : 1 920 pixels
Height : 1 080 pixels
Display aspect ratio : 16:9
Frame rate mode : Constant
Frame rate : 25.000 FPS
Color space : YUV
Chroma subsampling : 4:2:0
Bit depth : 10 bits
Bits/(Pixel*Frame) : 0.066
Stream size : 1.41 GiB (96%)
Encoding settings : cpuid=1111039 / frame-threads=3 / numa-pools=12 / wpp / no-pmode / no-pme / no-psnr / no-ssim / log-level=2 / input-csp=1 / input-res=1920x1080 / interlace=0 / total-frames=88550 / level-idc=0 / high-tier=1 / uhd-bd=0 / ref=3 / no-allow-non-conformance / no-repeat-headers / annexb / no-aud / no-hrd / info / hash=0 / no-temporal-layers / no-open-gop / min-keyint=25 / keyint=250 / gop-lookahead=12 / bframes=6 / b-adapt=2 / b-pyramid / bframe-bias=0 / rc-lookahead=20 / lookahead-slices=6 / scenecut=40 / radl=0 / no-splice / no-intra-refresh / ctu=64 / min-cu-size=8 / no-rect / no-amp / max-tu-size=32 / tu-inter-depth=1 / tu-intra-depth=1 / limit-tu=0 / rdoq-level=0 / dynamic-rd=0.00 / no-ssim-rd / signhide / no-tskip / nr-intra=0 / nr-inter=0 / no-constrained-intra / strong-intra-smoothing / max-merge=3 / limit-refs=1 / no-limit-modes / me=1 / subme=2 / merange=57 / temporal-mvp / no-hme / weightp / weightb / no-analyze-src-pics / deblock=0:0 / sao / no-sao-non-deblock / rd=3 / early-skip / rskip / no-fast-intra / no-tskip-fast / no-cu-lossless / b-intra / no-splitrd-skip / rdpenalty=0 / psy-rd=2.00 / psy-rdoq=0.00 / no-rd-refine / no-lossless / cbqpoffs=0 / crqpoffs=0 / rc=crf / crf=24.0 / qcomp=0.60 / qpstep=4 / stats-write=0 / stats-read=0 / ipratio=1.40 / pbratio=1.30 / aq-mode=2 / aq-strength=1.00 / cutree / zone-count=0 / no-strict-cbr / qg-size=32 / no-rc-grain / qpmax=69 / qpmin=0 / no-const-vbv / sar=0 / overscan=0 / videoformat=5 / range=0 / colorprim=1 / transfer=1 / colormatrix=1 / chromaloc=0 / display-window=0cll=0,0 / min-luma=0 / max-luma=1023 / log2-max-poc-lsb=8 / vui-timing-info / vui-hrd-info / slices=1 / no-opt-qp-pps / no-opt-ref-list-length-pps / no-multi-pass-opt-rps / scenecut-bias=0.05 / no-opt-cu-delta-qp / no-aq-motion / no-hdr / no-hdr-opt / no-dhdr10-opt / no-idr-recovery-sei / analysis-reuse-level=5 / scale-factor=0 / refine-intra=0 / refine-inter=0 / refine-mv=0 / refine-ctu-distortion=0 / no-limit-sao / ctu-info=0 / no-lowpass-dct / refine-analysis-type=0 / copy-pic=1 / max-ausize-factor=1.0 / no-dynamic-refine / no-single-sei / no-hevc-aq / no-svt / no-field / qp-adaptation-range=1.00
Language : English
Default : Yes
Forced : No
Color range : Limited
Color primaries : BT.709
Transfer characteristics : BT.709
Matrix coefficients : BT.709

Audio
ID : 2
Format : AAC
Format/Info : Advanced Audio Codec
Format profile : LC
Codec ID : A_AAC
Duration : 59 min 1 s
Bit rate : 137 kb/s
Channel(s) : 2 channels
Channel positions : Front: L R
Sampling rate : 48.0 kHz
Frame rate : 46.875 FPS (1024 spf)
Compression mode : Lossy
Delay relative to video : 9 ms
Stream size : 58.0 MiB (4%)
Language : English
Default : Yes
Forced : No

Text
ID : 3
Format : UTF-8
Codec ID : S_TEXT/UTF8
Codec ID/Info : UTF-8 Plain Text
Duration : 58 min 24 s
Bit rate : 68 b/s
Count of elements : 698
Stream size : 29.3 KiB (0%)
Language : English
Default : No
Forced : No


Screenshots:

BBC - Animal Babies: First Year on Earth (2019)

BBC - Animal Babies: First Year on Earth (2019)

BBC - Animal Babies: First Year on Earth (2019)

BBC - Animal Babies: First Year on Earth (2019)