BBC - Animals with Cameras: Series 1 (2018)

Posted By: notbanned
720p (HD) / HDTV
BBC - Animals with Cameras: Series 1 (2018)

BBC - Animals with Cameras: Series 1 (2018)
HDTV | 1280x720 | .MP4/AVC @ 3200 Kbps | 3x~57min | 4.00 GiB
Audio: English AAC 160 kbps, 2 channels | Subs: English
Genre: Documentary

In this groundbreaking new series wildlife cameraman Gordon Buchanan joins forces with scientists to put cameras on animals. Together, they make extraordinary discoveries about the lives of some of the planet's most fascinating species.
Part 1:
In the first episode, the team uncover the hidden lives of three iconic animals. In the Kalahari Desert the team put cameras on wild meerkats for the first time, allowing scientists to finally understand what these miniature mammals get up to underground. Heading to Cameroon, Gordon works with scientist Mimi Swift, who is desperate to understand whether Kimbang, a four-year-old orphan chimp, has the skills she needs to be able to join a chimp family living wild in the forest. Leaving Africa for Argentina, the team have penguins carry tiny cameras far out to sea on an epic journey of up to 300 kilometres (200 miles). For the first time, scientists are able to see the tactics these charismatic characters use to catch their prey.

Part 2:
In Namibia, Gordon joins a cheetah conservationist who wants to see if three orphaned cheetahs, which she has raised from a day old, can learn to hunt effectively in the thick vegetation. The on-board cameras, the first to ever be worn by cheetahs hunting in Africa, In Australia, the team puts cameras on fur seals to try to see how they hunt their prey and avoid attacks by great white sharks. In South Africa, we deploy the first ever cameras on wild baboons in an effort to understand why these clever monkeys sometimes raid farmers' crops.

Part 3:
In the heart of the Atlantic, Gordon Buchanan joins a team looking to discover why huge numbers of devil rays, fish with 'wings' nearly four metres across, and gather every summer near the Azores archipelago. In northeast Turkey the on-board cameras are carried by brown bears as part of a study trying to understand why so many bears survive in a small patch of forest. In southern France on-board cameras help scientists trying to prove that guard dogs can help protect sheep flocks from wolf attacks. The night-vision cameras show how the dogs work together as a team to fend off the wolves.

General
Complete name : BBC.Animals.With.Cameras.Series.1.1of3.720p.mp4
Format : MPEG-4
Format profile : Base Media
Codec ID : isom (isom)
File size : 1.34 GiB
Duration : 57 min 8 s
Overall bit rate mode : Variable
Overall bit rate : 3 348 kb/s

Video
ID : 1
Format : AVC
Format/Info : Advanced Video Codec
Format profile : High@L4.1
Format settings, CABAC : Yes
Format settings, ReFrames : 4 frames
Codec ID : avc1
Codec ID/Info : Advanced Video Coding
Duration : 57 min 8 s
Bit rate : 3 200 kb/s
Maximum bit rate : 16.7 Mb/s
Width : 1 280 pixels
Height : 720 pixels
Display aspect ratio : 16:9
Frame rate mode : Constant
Frame rate : 25.000 FPS
Color space : YUV
Chroma subsampling : 4:2:0
Bit depth : 8 bits
Scan type : Progressive
Bits/(Pixel*Frame) : 0.139
Stream size : 1.27 GiB (95%)
Encoding settings : cabac=1 / ref=1 / deblock=1:0:0 / analyse=0x3:0x113 / me=hex / subme=2 / psy=1 / psy_rd=1.00:0.00 / mixed_ref=0 / me_range=16 / chroma_me=1 / trellis=0 / 8x8dct=1 / cqm=0 / deadzone=21,11 / fast_pskip=1 / chroma_qp_offset=0 / threads=6 / lookahead_threads=2 / sliced_threads=0 / nr=0 / decimate=1 / interlaced=0 / bluray_compat=0 / constrained_intra=0 / bframes=3 / b_pyramid=2 / b_adapt=1 / b_bias=0 / direct=1 / weightb=1 / open_gop=0 / weightp=1 / keyint=250 / keyint_min=25 / scenecut=40 / intra_refresh=0 / rc_lookahead=10 / rc=abr / mbtree=1 / bitrate=3200 / ratetol=1.0 / qcomp=0.60 / qpmin=0 / qpmax=69 / qpstep=4 / vbv_maxrate=62500 / vbv_bufsize=78125 / nal_hrd=none / ip_ratio=1.40 / aq=1:1.00
Encoded date : UTC 2018-02-16 01:25:47
Tagged date : UTC 2018-02-16 14:11:04
Color range : Limited
Color primaries : BT.709
Transfer characteristics : BT.709
Matrix coefficients : BT.709

Audio
ID : 2
Format : AAC
Format/Info : Advanced Audio Codec
Format profile : LC
Codec ID : 40
Duration : 57 min 8 s
Bit rate mode : Variable
Bit rate : 160 kb/s
Maximum bit rate : 208 kb/s
Channel(s) : 2 channels
Channel positions : Front: L R
Sampling rate : 48.0 kHz
Frame rate : 46.875 FPS (1024 spf)
Compression mode : Lossy
Stream size : 65.4 MiB (5%)
Language : English
Encoded date : UTC 2018-02-16 14:10:59
Tagged date : UTC 2018-02-16 14:11:04

Text
ID : 3
Format : Timed Text
Codec ID : tx3g
Duration : 56 min 38 s
Bit rate mode : Variable
Bit rate : 166 b/s
Stream size : 68.7 KiB (0%)
Forced : No
Encoded date : UTC 2018-02-16 14:11:04
Tagged date : UTC 2018-02-16 14:11:04


Screenshots:

BBC - Animals with Cameras: Series 1 (2018)

BBC - Animals with Cameras: Series 1 (2018)

BBC - Animals with Cameras: Series 1 (2018)

BBC - Animals with Cameras: Series 1 (2018)