BBC - Antique Roadshow: Black Country Living Museum 2 (2018)

Posted By: notbanned
720p (HD) / HDTV
BBC - Antique Roadshow: Black Country Living Museum 2 (2018)

BBC - Antique Roadshow: Black Country Living Museum 2 (2018)
HDTV | 1280x720 | .MP4/AVC @ 3248 Kbps | 57 min 53 s | 1.38 GiB
Audio: English AAC 160 kbps, 2 channels | Subs: English
Genre: Documentary

Fiona Bruce and the Antiques Roadshow team make a return visit to the Black Country Living Museum in the West Midlands on one of the hottest days of the year. Susan Rumfitt discovers some jewels fit for a princess, while Hilary Kay explores local motor racing history at the Sunbeam Motor Car Company. A surrealist picture appeals to Rupert Maas, but is it the real deal? And the show takes a surprising turn to the Wild West with one of the rarest guns Bill Harriman has ever seen - a Colt 37 revolver!

General
Complete name : BBC.Antiques.Roadshow.Series.40.Black.Country.Living.Museum.2.720p.mp4
Format : MPEG-4
Format profile : Base Media
Codec ID : isom (isom)
File size : 1.38 GiB
Duration : 57 min 53 s
Overall bit rate mode : Variable
Overall bit rate : 3 411 kb/s

Video
ID : 1
Format : AVC
Format/Info : Advanced Video Codec
Format profile : High@L4.1
Format settings, CABAC : No
Format settings, ReFrames : 1 frame
Format settings, GOP : M=1, N=12
Codec ID : avc1
Codec ID/Info : Advanced Video Coding
Duration : 57 min 53 s
Bit rate : 3 248 kb/s
Maximum bit rate : 11.7 Mb/s
Width : 1 280 pixels
Height : 720 pixels
Display aspect ratio : 16:9
Frame rate mode : Constant
Frame rate : 25.000 FPS
Color space : YUV
Chroma subsampling : 4:2:0
Bit depth : 8 bits
Scan type : Progressive
Bits/(Pixel*Frame) : 0.141
Stream size : 1.31 GiB (95%)
Encoded date : UTC 2018-05-20 21:29:30
Tagged date : UTC 2018-05-20 23:12:29

Audio
ID : 2
Format : AAC
Format/Info : Advanced Audio Codec
Format profile : LC
Codec ID : 40
Duration : 57 min 53 s
Bit rate mode : Variable
Bit rate : 160 kb/s
Maximum bit rate : 219 kb/s
Channel(s) : 2 channels
Channel positions : Front: L R
Sampling rate : 48.0 kHz
Frame rate : 46.875 FPS (1024 spf)
Compression mode : Lossy
Stream size : 66.3 MiB (5%)
Language : English
Encoded date : UTC 2018-05-20 23:12:21
Tagged date : UTC 2018-05-20 23:12:29

Text
ID : 3
Format : Timed Text
Codec ID : tx3g
Duration : 57 min 22 s
Bit rate mode : Variable
Bit rate : 254 b/s
Stream size : 107 KiB (0%)
Forced : No
Encoded date : UTC 2018-05-20 23:12:29
Tagged date : UTC 2018-05-20 23:12:29


Screenshots:

BBC - Antique Roadshow: Black Country Living Museum 2 (2018)

BBC - Antique Roadshow: Black Country Living Museum 2 (2018)

BBC - Antique Roadshow: Black Country Living Museum 2 (2018)

BBC - Antique Roadshow: Black Country Living Museum 2 (2018)