Tags
Language
Tags

BBC - Ballet's Dark Knight: Sir Kenneth Macmillan (2018)

Posted By: notbanned
720p (HD) / HDTV
BBC - Ballet's Dark Knight: Sir Kenneth Macmillan (2018)

BBC - Ballet's Dark Knight: Sir Kenneth Macmillan (2018)
HDTV | 1280x720 | .MKV/AVC @ 2127 Kbps | 58 min 45 s | 951 MiB
Audio: English AAC 132 kbps, 2 channels | Subs: English
Genre: Documentary

Film exploring the life and work of celebrated yet controversial choreographer Sir Kenneth MacMillan whose pioneering creativity unleashed over sixty new ballets that changed the dance landscape forever. Weaving together stunning specially shot performance footage, never-before-seen family super 8 home movies and MacMillan's own voice from the archives, alongside those who were closest to him, the documentary reveals MacMillan to have been a complex figure who lit up the ballet world with his bold choreographic genius while struggling privately with alcoholism, anxiety, and depression. Packed full of extraordinary ballet excerpts showcasing a wide range of MacMillan's work including Romeo and Juliet, Manon and Mayerling, the programme also offers a surprisingly moving and intimate portrait of a true giant of 20th-century culture. Featuring contributions from MacMillan's family, Darcey Bussell, Dame Monica Mason and Sir Anthony Dowell.

General
Unique ID : 230198508084030027879519520283605192616 (0xAD2E9EB77BAD0D33D839E2743F21CFA8)
Complete name : BBC.Ballets.Dark.Knight.Sir.Kenneth.MacMillan.720p.mkv
Format : Matroska
Format version : Version 4 / Version 2
File size : 951 MiB
Duration : 58 min 45 s
Overall bit rate : 2 263 kb/s

Video
ID : 1
Format : AVC
Format/Info : Advanced Video Codec
Format profile : High@L3.1
Format settings, CABAC : Yes
Format settings, ReFrames : 4 frames
Codec ID : V_MPEG4/ISO/AVC
Duration : 58 min 45 s
Bit rate : 2 127 kb/s
Width : 1 280 pixels
Height : 720 pixels
Display aspect ratio : 16:9
Frame rate mode : Constant
Frame rate : 25.000 FPS
Color space : YUV
Chroma subsampling : 4:2:0
Bit depth : 8 bits
Scan type : Progressive
Bits/(Pixel*Frame) : 0.092
Stream size : 894 MiB (94%)
Encoding settings : cabac=1 / ref=3 / deblock=1:0:0 / analyse=0x3:0x113 / me=umh / subme=9 / psy=1 / psy_rd=1.00:0.00 / mixed_ref=1 / me_range=24 / chroma_me=1 / trellis=1 / 8x8dct=1 / cqm=0 / deadzone=21,11 / fast_pskip=0 / chroma_qp_offset=-2 / threads=3 / lookahead_threads=1 / sliced_threads=0 / nr=0 / decimate=1 / interlaced=0 / bluray_compat=0 / constrained_intra=0 / bframes=6 / b_pyramid=2 / b_adapt=2 / b_bias=0 / direct=1 / weightb=1 / open_gop=0 / weightp=2 / keyint=250 / keyint_min=25 / scenecut=40 / intra_refresh=0 / rc_lookahead=40 / rc=crf / mbtree=1 / crf=19.0 / qcomp=0.60 / qpmin=0 / qpmax=69 / qpstep=4 / ip_ratio=1.40 / aq=1:1.00
Language : English
Default : Yes
Forced : No
Color range : Limited
Color primaries : BT.709
Transfer characteristics : BT.709
Matrix coefficients : BT.709

Audio
ID : 2
Format : AAC
Format/Info : Advanced Audio Codec
Format profile : LC
Codec ID : A_AAC
Duration : 58 min 45 s
Bit rate : 132 kb/s
Channel(s) : 2 channels
Channel positions : Front: L R
Sampling rate : 48.0 kHz
Frame rate : 46.875 FPS (1024 spf)
Compression mode : Lossy
Delay relative to video : 9 ms
Stream size : 56.3 MiB (6%)
Language : English
Default : Yes
Forced : No

Text
ID : 3
Format : UTF-8
Codec ID : S_TEXT/UTF8
Codec ID/Info : UTF-8 Plain Text
Duration : 58 min 17 s
Bit rate : 65 b/s
Count of elements : 698
Stream size : 28.1 KiB (0%)
Language : English
Default : No
Forced : No


Screenshots:

BBC - Ballet's Dark Knight: Sir Kenneth Macmillan (2018)

BBC - Ballet's Dark Knight: Sir Kenneth Macmillan (2018)

BBC - Ballet's Dark Knight: Sir Kenneth Macmillan (2018)

BBC - Ballet's Dark Knight: Sir Kenneth Macmillan (2018)