Tags
Language
Tags

BBC - Black Hollywood: They've Gotta Have Us (2018)

Posted By: notbanned
1080p (FullHD) / HDTV IMDb
BBC - Black Hollywood: They've Gotta Have Us (2018)

BBC - Black Hollywood: They've Gotta Have Us (2018)
HDTV | 1920x1080 | .MKV/AVC @ 1091 Kbps | 2 h 56 min | 1.42 GiB
Audio: English AAC 64 kbps, 2 channels | Subs: English
Genre: Documentary

Simon Frederick guides viewers through conversations with contributors as film veterans Harry Belafonte, Earl Cameron and Diahann Carroll discuss what it was like to be pioneers in a white movie world.

Chapter 1: Legends and Pioneers
Opens at the Oscars with Warren Beatty and Faye Dunaway (Bonnie and Clyde themselves) announcing that Damien Chazelle's beloved musical La La Land had won. However, in perhaps one of the most bizarre and embarrassing moments in the ceremony's 89-year history, amid an onstage melee and calls that there had been a mistake, just like that, Moonlight became the first film with an all-black cast to win Best Picture - a win that is nothing short of historic.

Chapter 2: Black Film Is Not a Genre
Focuses on how a new generation of black film-makers emerged in the 1990s, following the success of Spike Lee's Do the Right Thing, as well as the development of a new genre, the Hood movie, exploring contemporary black working-class life. The programme also explores how movie stars like Eddie Murphy, Will Smith and Denzel Washington became marquee names, even as black stories were increasingly told by white film-makers. Featuring contributions from David Oyelowo, Laurence Fishburne and John Boyega.

Chapter 3: Black Is the New Hollywood
A look ahead to the future facing black film-makers, examining how the impact of high-profile success stories like Black Panther and the Oscar-winning Moonlight and Get Out may bring an end to the belief that black directors and actors are not seen as bankable. The programme also examines a new generation of British talent, including director Steve McQueen and actors David Oyelowo and John Boyega.

General
Unique ID : 82085323206253793375855165965986865463 (0x3DC10EE5EAE2453D3EE127DEA8C2A137)
Complete name : BBC.Black.Hollywood.They.ve.Gotta.Have.Us.1080p.mkv
Format : Matroska
Format version : Version 4 / Version 2
File size : 1.42 GiB
Duration : 2 h 56 min
Overall bit rate : 1 157 kb/s

Video
ID : 1
Format : HEVC
Format/Info : High Efficiency Video Coding
Format profile : Main@L4@Main
Codec ID : V_MPEGH/ISO/HEVC
Duration : 2 h 56 min
Bit rate : 1 091 kb/s
Width : 1 920 pixels
Height : 1 080 pixels
Display aspect ratio : 16:9
Frame rate mode : Constant
Frame rate : 25.000 FPS
Color space : YUV
Chroma subsampling : 4:2:0
Bit depth : 8 bits
Bits/(Pixel*Frame) : 0.021
Stream size : 1.34 GiB (94%)
Encoding settings : cpuid=1111039 / frame-threads=3 / numa-pools=12 / wpp / no-pmode / no-pme / no-psnr / no-ssim / log-level=2 / input-csp=1 / input-res=1920x1080 / interlace=0 / total-frames=264050 / level-idc=0 / high-tier=1 / uhd-bd=0 / ref=3 / no-allow-non-conformance / no-repeat-headers / annexb / no-aud / no-hrd / info / hash=0 / no-temporal-layers / no-open-gop / min-keyint=25 / keyint=250 / gop-lookahead=12 / bframes=6 / b-adapt=2 / b-pyramid / bframe-bias=0 / rc-lookahead=20 / lookahead-slices=6 / scenecut=40 / hist-scenecut=0 / radl=0 / no-splice / no-intra-refresh / ctu=64 / min-cu-size=8 / no-rect / no-amp / max-tu-size=32 / tu-inter-depth=1 / tu-intra-depth=1 / limit-tu=0 / rdoq-level=0 / dynamic-rd=0.00 / no-ssim-rd / signhide / no-tskip / nr-intra=0 / nr-inter=0 / no-constrained-intra / strong-intra-smoothing / max-merge=3 / limit-refs=1 / no-limit-modes / me=2 / subme=2 / merange=48 / temporal-mvp / no-frame-dup / hme / Level / merange / L0,L1,L2=16,32,48 / weightp / weightb / no-analyze-src-pics / deblock=0:0 / sao / no-sao-non-deblock / rd=3 / selective-sao=4 / early-skip / rskip / no-fast-intra / no-tskip-fast / no-cu-lossless / b-intra / no-splitrd-skip / rdpenalty=0 / psy-rd=2.00 / psy-rdoq=0.00 / no-rd-refine / no-lossless / cbqpoffs=0 / crqpoffs=0 / rc=crf / crf=23.0 / qcomp=0.60 / qpstep=4 / stats-write=0 / stats-read=0 / ipratio=1.40 / pbratio=1.30 / aq-mode=4 / aq-strength=1.00 / cutree / zone-count=0 / no-strict-cbr / qg-size=32 / no-rc-grain / qpmax=69 / qpmin=0 / no-const-vbv / sar=1 / overscan=0 / videoformat=5 / range=0 / colorprim=1 / transfer=1 / colormatrix=1 / chromaloc=0 / display-window=0 / cll=0,0 / min-luma=0 / max-luma=255 / log2-max-poc-lsb=8 / vui-timing-info / vui-hrd-info / slices=1 / no-opt-qp-pps / no-opt-ref-list-length-pps / no-multi-pass-opt-rps / scenecut-bias=0.05 / hist-threshold=0.01 / no-opt-cu-delta-qp / no-aq-motion / no-hdr10 / no-hdr10-opt / no-dhdr10-opt / no-idr-recovery-sei / analysis-reuse-level=0 / analysis-save-reuse-level=0 / analysis-load-reuse-level=0 / scale-factor=0 / refine-intra=0 / refine-inter=0 / refine-mv=1 / refine-ctu-distortion=0 / no-limit-sao / ctu-info=0 / no-lowpass-dct / refine-analysis-type=0 / copy-pic=1 / max-ausize-factor=1.0 / no-dynamic-refine / no-single-sei / no-hevc-aq / no-svt / no-field / qp-adaptation-range=1.00 / no-scenecut-aware-qpconformance-window-offsets / right=0 / bottom=0 / decoder-max-rate=0
Language : English
Default : Yes
Forced : No
Color range : Limited
Color primaries : BT.709
Transfer characteristics : BT.709
Matrix coefficients : BT.709

Audio
ID : 2
Format : AAC
Format/Info : Advanced Audio Codec
Format profile : HE-AAC / LC
Codec ID : A_AAC
Duration : 2 h 56 min
Bit rate : 64.0 kb/s
Channel(s) : 2 channels
Channel positions : Front: L R
Sampling rate : 48.0 kHz / 24.0 kHz
Frame rate : 23.438 FPS (1024 spf)
Compression mode : Lossy
Stream size : 80.6 MiB (6%)
Language : English
Default : Yes
Forced : No

Text
ID : 3
Format : UTF-8
Codec ID : S_TEXT/UTF8
Codec ID/Info : UTF-8 Plain Text
Duration : 2 h 55 min
Bit rate : 101 b/s
Count of elements : 3151
Stream size : 131 KiB (0%)
Language : English
Default : No
Forced : No

Menu
00:00:00.000 : en:Part 1 - Legends and Pioneers
00:59:05.000 : en:Part 2 - Black Film Is Not a Genre
01:57:25.000 : en:Part 3 - Black Is the New Hollywood


Screenshots:

BBC - Black Hollywood: They've Gotta Have Us (2018)

BBC - Black Hollywood: They've Gotta Have Us (2018)

BBC - Black Hollywood: They've Gotta Have Us (2018)

BBC - Black Hollywood: They've Gotta Have Us (2018)