Tags
Language
Tags

BBC - Burma with Simon Reeve: Series 1 (2018)

Posted By: notbanned
720p (HD) / HDTV
BBC - Burma with Simon Reeve: Series 1 (2018)

BBC - Burma with Simon Reeve: Series 1 (2018)
HDTV | 1280x720 | .MP4/AVC @ 3234 Kbps | 2x~59min | 2.79 GiB
Audio: English AAC 160 kbps, 2 channels | Subs: English
Genre: Documentary

Adventurer and broadcaster Simon Reeve heads to beautiful and troubled Burma - or Myanmar, as it is now officially called - for a new two-part series. Cut off for decades under military rule, the country now has a democratically elected government led by world-famous Nobel laureate Aung San Suu Kyi. But in August 2017, the world was left stunned when a brutal military operation drove hundreds of thousands of ethnic Rohingya Muslims from their homes.
Part 1: 1
In this first episode, Simon travels to Burma to find out the roots of this crisis - as well as heading to Bangladesh to witness the drama that is still unfolding. He begins his journey in the biggest city in the country, Yangon, and drives north into Burma's Buddhist heartlands and the stunning ancient capital of Bagan - a sight that rivals the great wonders of the world. He meets the monks who supported the people through the darkest days of dictatorship. And he is granted an audience with some of the most contentious figures in the country - ultranationalist monks preaching hate against the country's Muslim Rohingya. Stopped from visiting the scene of the military crackdown against the Rohingya, Simon travels to Bangladesh to meet the refugees traumatised by the violence

Part 2:
The second of a two-part series, in which adventurer and broadcaster Simon Reeve travels deeper into beautiful and troubled Burma. Simon journeys up the vast Irrawaddy River to the old royal capital of Mandalay, home to an exotic market for precious jade. In Burma's mountainous highlands, he experiences the country's vibrant ethnic heritage at an extraordinary and explosive fire-balloon festival, Burma is a melting pot of different ethnic groups, and having seen first-hand the suffering of the Rohingya people on the first leg of his journey, Simon now travels secretly into one of Burma's many other conflict zones to meet a huge rebel army who have been fighting the Burmese military for decades.

General
Complete name : BBC.Burma.with.Simon.Reeve.Series.1.1of2.720p.mp4
Format : MPEG-4
Format profile : Base Media
Codec ID : isom (isom)
File size : 1.40 GiB
Duration : 59 min 2 s
Overall bit rate mode : Variable
Overall bit rate : 3 397 kb/s

Video
ID : 1
Format : AVC
Format/Info : Advanced Video Codec
Format profile : High@L4.1
Format settings, CABAC : No
Format settings, ReFrames : 1 frame
Format settings, GOP : M=1, N=12
Codec ID : avc1
Codec ID/Info : Advanced Video Coding
Duration : 59 min 2 s
Bit rate : 3 234 kb/s
Maximum bit rate : 14.3 Mb/s
Width : 1 280 pixels
Height : 720 pixels
Display aspect ratio : 16:9
Frame rate mode : Constant
Frame rate : 25.000 FPS
Color space : YUV
Chroma subsampling : 4:2:0
Bit depth : 8 bits
Scan type : Progressive
Bits/(Pixel*Frame) : 0.140
Stream size : 1.33 GiB (95%)

Audio
ID : 2
Format : AAC
Format/Info : Advanced Audio Codec
Format profile : LC
Codec ID : 40
Duration : 59 min 2 s
Bit rate mode : Variable
Bit rate : 160 kb/s
Maximum bit rate : 231 kb/s
Channel(s) : 2 channels
Channel positions : Front: L R
Sampling rate : 48.0 kHz
Frame rate : 46.875 FPS (1024 spf)
Compression mode : Lossy
Stream size : 67.6 MiB (5%)
Language : English
Encoded date : UTC 2018-05-26 09:41:55
Tagged date : UTC 2018-05-26 09:42:03

Text
ID : 3
Format : Timed Text
Codec ID : tx3g
Duration : 58 min 31 s
Bit rate mode : Variable
Bit rate : 152 b/s
Stream size : 65.1 KiB (0%)
Forced : No
Encoded date : UTC 2018-05-26 09:42:03
Tagged date : UTC 2018-05-26 09:42:03


Screenshots:

BBC - Burma with Simon Reeve: Series 1 (2018)

BBC - Burma with Simon Reeve: Series 1 (2018)

BBC - Burma with Simon Reeve: Series 1 (2018)

BBC - Burma with Simon Reeve: Series 1 (2018)