Tags
Language
Tags

BBC - Clara Bow: Hollywood's Lost Screen Goddess (2012)

Posted By: notbanned
BBC - Clara Bow: Hollywood's Lost Screen Goddess (2012)

BBC - Clara Bow: Hollywood's Lost Screen Goddess (2012)
HDTV | 1280x720 | .MKV/AVC @ 1970 Kbps | 59 min 0 s | 885 MiB
Audio: English AAC 126 kbps, 2 channels | Subs: English
Genre: Documentary

Documentary about Clara Bow, a cinema sensation who broke box office records and became one of the greatest stars of the silent screen. Amid scandal and ill health, she retired for good at the age of just 28. Once the Queen of Hollywood, now largely forgotten - whatever happened to Clara Bow?
More info


General
Unique ID : 171060553460747017027055414233324742105 (0x80B11070CF78A7D99C5D99EBF7FE65D9)
Complete name : BBC.Clara.Bow.Hollywoods.Lost.Screen.Goddess.720p.mkv
Format : Matroska
Format version : Version 4 / Version 2
File size : 885 MiB
Duration : 59 min 0 s
Overall bit rate : 2 098 kb/s

Video
ID : 1
Format : AVC
Format/Info : Advanced Video Codec
Format profile : High@L3.1
Format settings, CABAC : Yes
Format settings, ReFrames : 4 frames
Codec ID : V_MPEG4/ISO/AVC
Duration : 59 min 0 s
Bit rate : 1 970 kb/s
Width : 1 280 pixels
Height : 720 pixels
Display aspect ratio : 16:9
Frame rate mode : Constant
Frame rate : 25.000 FPS
Color space : YUV
Chroma subsampling : 4:2:0
Bit depth : 8 bits
Scan type : Progressive
Bits/(Pixel*Frame) : 0.085
Stream size : 831 MiB (94%)
Encoding settings : cabac=1 / ref=3 / deblock=1:0:0 / analyse=0x3:0x113 / me=umh / subme=9 / psy=1 / psy_rd=1.00:0.00 / mixed_ref=1 / me_range=24 / chroma_me=1 / trellis=1 / 8x8dct=1 / cqm=0 / deadzone=21,11 / fast_pskip=0 / chroma_qp_offset=-2 / threads=3 / lookahead_threads=1 / sliced_threads=0 / nr=0 / decimate=1 / interlaced=0 / bluray_compat=0 / constrained_intra=0 / bframes=6 / b_pyramid=2 / b_adapt=2 / b_bias=0 / direct=1 / weightb=1 / open_gop=0 / weightp=2 / keyint=250 / keyint_min=25 / scenecut=40 / intra_refresh=0 / rc_lookahead=40 / rc=crf / mbtree=1 / crf=19.0 / qcomp=0.60 / qpmin=0 / qpmax=69 / qpstep=4 / ip_ratio=1.40 / aq=1:1.00
Language : English
Default : Yes
Forced : No
Color range : Limited
Color primaries : BT.709
Transfer characteristics : BT.709
Matrix coefficients : BT.709

Audio
ID : 2
Format : AAC
Format/Info : Advanced Audio Codec
Format profile : LC
Codec ID : A_AAC
Duration : 59 min 0 s
Bit rate : 126 kb/s
Channel(s) : 2 channels
Channel positions : Front: L R
Sampling rate : 48.0 kHz
Frame rate : 46.875 FPS (1024 spf)
Compression mode : Lossy
Delay relative to video : 9 ms
Stream size : 53.0 MiB (6%)
Language : English
Default : Yes
Forced : No

Text
ID : 3
Format : UTF-8
Codec ID : S_TEXT/UTF8
Codec ID/Info : UTF-8 Plain Text
Duration : 57 min 22 s
Bit rate : 94 b/s
Count of elements : 841
Stream size : 39.7 KiB (0%)
Language : English
Default : No
Forced : No


Screenshots:

BBC - Clara Bow: Hollywood's Lost Screen Goddess (2012)

BBC - Clara Bow: Hollywood's Lost Screen Goddess (2012)

BBC - Clara Bow: Hollywood's Lost Screen Goddess (2012)

BBC - Clara Bow: Hollywood's Lost Screen Goddess (2012)