BBC - Natural World: Attenborough and the Empire of the Ants (2017)

Posted By: notbanned
1080p (FullHD) / HDTV IMDb
BBC - Natural World: Attenborough and the Empire of the Ants (2017)

BBC - Natural World: Attenborough and the Empire of the Ants (2017)
HDTV | 1920x1080 | .MP4/AVC @ 3005 Kbps | 58 min 49 s | 1.33 GiB
Audio: English AAC 214 kbps, 2 channels | Subs: None
Genre: Documentary

This documentary is the latest in a series by the great naturalist Sir David Attenborough following Attenborough and the Giant Dinosaur and Attenborough And The Giant Elephant. While in the giant Dinosaur and giant Elephant are massive an ant is tiny, but as a group, they are enormous with the queen often creating empires consisting of millions of ants. In this documentary, Attenborough uses the same amazing camera techniques to uncover these secret worlds that exist right below our feet. What makes ants “giants” is that their massive empires behave as one single entity, like is it one single mind at work. Attenborough and the Empire of the Ants reveal the stunning words they make underground and how they work as a collective to achieve their goals. Ant colonies are some of the biggest in the world with many consisting of billions of ants.

General
Complete name : BBC.David.Attenborough.and.the.Empire.of.the.Ants.1080p.mp4
Format : MPEG-4
Format profile : Base Media / Version 2
Codec ID : mp42 (mp42)
File size : 1.33 GiB
Duration : 58 min 49 s
Overall bit rate : 3 226 kb/s
Codirector : codirector
Production studio : studio

Video
ID : 1
Format : AVC
Format/Info : Advanced Video Codec
Format profile : Main@L4.1
Format settings, CABAC : Yes
Format settings, ReFrames : 2 frames
Muxing mode : Container profile=Baseline@3.0
Codec ID : avc1
Codec ID/Info : Advanced Video Coding
Duration : 58 min 49 s
Bit rate : 3 005 kb/s
Width : 1 920 pixels
Height : 1 080 pixels
Display aspect ratio : 16:9
Frame rate mode : Constant
Frame rate : 25.000 FPS
Color space : YUV
Chroma subsampling : 4:2:0
Bit depth : 8 bits
Scan type : Progressive
Bits/(Pixel*Frame) : 0.058
Stream size : 1.23 GiB (93%)
Language : English

Audio
ID : 2
Format : AAC
Format/Info : Advanced Audio Codec
Format profile : LC
Codec ID : 40
Duration : 58 min 49 s
Bit rate mode : Constant
Bit rate : 214 kb/s
Channel(s) : 2 channels
Channel positions : Front: L R
Sampling rate : 48.0 kHz
Frame rate : 46.875 FPS (1024 spf)
Compression mode : Lossy
Stream size : 90.1 MiB (7%)
Title : Stereo
Language : English
Default : Yes
Alternate group : 1


Screenshots:

BBC - Natural World: Attenborough and the Empire of the Ants (2017)

BBC - Natural World: Attenborough and the Empire of the Ants (2017)

BBC - Natural World: Attenborough and the Empire of the Ants (2017)

BBC - Natural World: Attenborough and the Empire of the Ants (2017)