BBC - Earths Natural Wonders: Series 2 (2018)

Posted By: notbanned
720p (HD) / HDTV
BBC - Earths Natural Wonders: Series 2 (2018)

BBC - Earths Natural Wonders: Series 2 (2018)
HDTV | 1280x720 | .MP4/AVC @ 3050 Kbps | 3x~57min | 3.89 GiB
Audio: English AAC 160 kbps, 2 channels | Subs: English
Genre: Documentary

Documentary series examining what it takes to survive in some of the most extreme places on the planet.
Part 1: Surviving the Extreme
In the high Himalaya, yak-herder Thokmay Lowa and his small group steer his herd through one of the region's extreme mountain passes. For several months of the year,In the Canadian Arctic, traditional Inuit communities still forage for much of their food. 63-year-old Minnie Nappaaluk and her granddaughter Eva embark on one of the most hazardous expeditions for food Some Natural Wonders are threatened as never before - nowhere more so than the Brazilian Amazon. In the Mato Grosso, as a result of deforestation, the region's microclimate has changed. Now fires rage out of control in the dry season.

Part 2: Surviving with Animals
In many of the earth's natural wonders there is an abundance of animals. These can be a devastating threat to the people who live there, or they can provide a means of survival, but often at a high price.
In the coastal salt marshes of northern Australia's Arnhem Land, Indigenous Australians still go hunting for the eggs of one of the world's most aggressive predators - the saltwater crocodile. Vanuatu is an island paradise in the south Pacific, but life here isn't perhaps as idyllic as it appears. Overfishing has reduced fish stocks, making food harder to come by for the indigenous islanders like 45-year-old Nigasau.

Part 3: Surviving Against the Odds
In some of the world's most spectacular natural wonders, people push themselves to the limit in order to survive. For the people who call these extraordinary places home, survival requires skill, ingenuity and bravery.
In Brazil, the Kamayura people of the Xingu Indigenous Park believe they must appease the spirits if they are to remain in good health. In Ethiopia, belief in a higher power leads villagers in the Tigray region to climb a huge, vertiginous mountainside to reach their church. Laos is one of the most fertile places on earth. Despite this, life is dangerous for the rice farmers in this beautiful country. During the Vietnam War, the United States dropped an estimated 270 million bombs on this small country and approximately 80 million of them failed to explode.

General
Complete name : BBC.Earths.Natural.Wonders.Series.2.1of3.Surviving.the.Extreme.720p.mp4
Format : MPEG-4
Format profile : Base Media
Codec ID : isom (isom)
File size : 1.30 GiB
Duration : 57 min 58 s
Overall bit rate mode : Variable
Overall bit rate : 3 200 kb/s

Video
ID : 1
Format : AVC
Format/Info : Advanced Video Codec
Format profile : High@L4.1
Format settings, CABAC : Yes
Format settings, ReFrames : 4 frames
Codec ID : avc1
Codec ID/Info : Advanced Video Coding
Duration : 57 min 58 s
Bit rate : 3 050 kb/s
Maximum bit rate : 21.5 Mb/s
Width : 1 280 pixels
Height : 720 pixels
Display aspect ratio : 16:9
Frame rate mode : Constant
Frame rate : 25.000 FPS
Color space : YUV
Chroma subsampling : 4:2:0
Bit depth : 8 bits
Scan type : Progressive
Bits/(Pixel*Frame) : 0.132
Stream size : 1.23 GiB (95%)
Encoding settings : cabac=1 / ref=1 / deblock=1:0:0 / analyse=0x3:0x113 / me=hex / subme=2 / psy=1 / psy_rd=1.00:0.00 / mixed_ref=0 / me_range=16 / chroma_me=1 / trellis=0 / 8x8dct=1 / cqm=0 / deadzone=21,11 / fast_pskip=1 / chroma_qp_offset=0 / threads=6 / lookahead_threads=2 / sliced_threads=0 / nr=0 / decimate=1 / interlaced=0 / bluray_compat=0 / constrained_intra=0 / bframes=3 / b_pyramid=2 / b_adapt=1 / b_bias=0 / direct=1 / weightb=1 / open_gop=0 / weightp=1 / keyint=250 / keyint_min=25 / scenecut=40 / intra_refresh=0 / rc_lookahead=10 / rc=abr / mbtree=1 / bitrate=3050 / ratetol=1.0 / qcomp=0.60 / qpmin=0 / qpmax=69 / qpstep=4 / vbv_maxrate=62500 / vbv_bufsize=78125 / nal_hrd=none / ip_ratio=1.40 / aq=1:1.00
Encoded date : UTC 2018-03-07 23:57:00
Tagged date : UTC 2018-03-08 01:05:35
Color range : Limited
Color primaries : BT.709
Transfer characteristics : BT.709
Matrix coefficients : BT.709

Audio
ID : 2
Format : AAC
Format/Info : Advanced Audio Codec
Format profile : LC
Codec ID : 40
Duration : 57 min 58 s
Bit rate mode : Variable
Bit rate : 160 kb/s
Maximum bit rate : 202 kb/s
Channel(s) : 2 channels
Channel positions : Front: L R
Sampling rate : 48.0 kHz
Frame rate : 46.875 FPS (1024 spf)
Compression mode : Lossy
Stream size : 66.3 MiB (5%)
Language : English
Encoded date : UTC 2018-03-08 01:05:30
Tagged date : UTC 2018-03-08 01:05:35

Text
ID : 3
Format : Timed Text
Codec ID : tx3g
Duration : 57 min 27 s
Bit rate mode : Variable
Bit rate : 57 b/s
Stream size : 24.0 KiB (0%)
Forced : No
Encoded date : UTC 2018-03-08 01:05:35
Tagged date : UTC 2018-03-08 01:05:35


Screenshots:

BBC - Earths Natural Wonders: Series 2 (2018)

BBC - Earths Natural Wonders: Series 2 (2018)

BBC - Earths Natural Wonders: Series 2 (2018)

BBC - Earths Natural Wonders: Series 2 (2018)