Tags
Language
Tags

BBC - Egon Schiele: Dangerous Desires (2018)

Posted By: notbanned
1080p (FullHD) / HDTV
BBC - Egon Schiele: Dangerous Desires (2018)

BBC - Egon Schiele: Dangerous Desires (2018)
HDTV | 1920x1080 | .MKV/AVC @ 2839 Kbps | 58 min 59 s | 1.22 GiB
Audio: English AAC 126 kbps, 2 channels | Subs: English
Genre: Documentary

Struck down by the Spanish Flu in 1918, aged just 28, in his short life Egon Schiele created over 3,000 drawings and paintings, self-portraits and nudes. An agent provocateur of the modernist era, he was a taboo-busting rebel whose art looks like it was made yesterday - self-obsessed, exhibitionist and unafraid to confront questions of sexuality and identity. To mark the anniversary of Schiele's death a century ago, this film tells Schiele's dramatic story in his own words, using original letters and writings - many of them translated for the first time. The film celebrates his remarkable artistic achievements but also debates the controversies around his work. His sexually frank images shocked early 20th-century Vienna and still challenge us today. But are these the images of empowered women in control - or figures of of voyeurism? And how do we view his images of young girls from our modern perspective? Schiele didn't just make groundbreaking art; he was also a new kind of artist, carefully crafting his own myth, pioneering the notion of the artist as personality and performer in a way that would influence generations of other cultural trailblazers. With contributions from Iggy Pop, Lily Cole and Jake Chapman, and visually striking dramatic reconstructions choreographed by acclaimed physical theatre company Gecko, the film conjures up the passionate, provocative world of Egon Schiele.

General
Unique ID : 1639122940880807054867196402491770550 (0x13BAF001C4F8192E250CA547A7CC6B6)
Complete name : BBC.Egon.Schiele.Dangerous.Desires.1080p.mkv
Format : Matroska
Format version : Version 4 / Version 2
File size : 1.22 GiB
Duration : 58 min 59 s
Overall bit rate : 2 968 kb/s

Video
ID : 1
Format : AVC
Format/Info : Advanced Video Codec
Format profile : High@L4.1
Format settings, CABAC : Yes
Format settings, ReFrames : 4 frames
Codec ID : V_MPEG4/ISO/AVC
Duration : 58 min 59 s
Bit rate : 2 839 kb/s
Width : 1 920 pixels
Height : 1 080 pixels
Display aspect ratio : 16:9
Frame rate mode : Constant
Frame rate : 25.000 FPS
Color space : YUV
Chroma subsampling : 4:2:0
Bit depth : 8 bits
Scan type : Progressive
Bits/(Pixel*Frame) : 0.055
Stream size : 1.17 GiB (96%)
Writing library : x264 core 157 r2935 545de2f
Encoding settings : cabac=1 / ref=4 / deblock=1:0:0 / analyse=0x3:0x113 / me=umh / subme=9 / psy=1 / psy_rd=1.00:0.00 / mixed_ref=1 / me_range=32 / chroma_me=1 / trellis=1 / 8x8dct=1 / cqm=0 / deadzone=21,11 / fast_pskip=0 / chroma_qp_offset=-2 / threads=18 / lookahead_threads=2 / sliced_threads=0 / nr=0 / decimate=1 / interlaced=0 / bluray_compat=0 / constrained_intra=0 / bframes=6 / b_pyramid=2 / b_adapt=2 / b_bias=0 / direct=1 / weightb=1 / open_gop=0 / weightp=2 / keyint=250 / keyint_min=25 / scenecut=40 / intra_refresh=0 / rc_lookahead=40 / rc=crf / mbtree=1 / crf=21.0 / qcomp=0.60 / qpmin=0 / qpmax=69 / qpstep=4 / ip_ratio=1.40 / aq=1:1.00
Language : English
Default : Yes
Forced : No
Color range : Limited
Color primaries : BT.709
Transfer characteristics : BT.709
Matrix coefficients : BT.709

Audio
ID : 2
Format : AAC
Format/Info : Advanced Audio Codec
Format profile : LC
Codec ID : A_AAC
Duration : 58 min 59 s
Bit rate : 126 kb/s
Channel(s) : 2 channels
Channel positions : Front: L R
Sampling rate : 48.0 kHz
Frame rate : 46.875 FPS (1024 spf)
Compression mode : Lossy
Delay relative to video : 9 ms
Stream size : 53.2 MiB (4%)
Language : English
Default : Yes
Forced : No

Text
ID : 3
Format : UTF-8
Codec ID : S_TEXT/UTF8
Codec ID/Info : UTF-8 Plain Text
Duration : 58 min 20 s
Bit rate : 64 b/s
Count of elements : 659
Stream size : 27.7 KiB (0%)
Language : English
Default : No
Forced : No


Screenshots:

BBC - Egon Schiele: Dangerous Desires (2018)

BBC - Egon Schiele: Dangerous Desires (2018)

BBC - Egon Schiele: Dangerous Desires (2018)

BBC - Egon Schiele: Dangerous Desires (2018)