BBC - Expedition Volcano Series 1 Part 2: Nyamulagira (2017)

Posted By: notbanned
720p (HD) / HDTV
BBC - Expedition Volcano Series 1 Part 2: Nyamulagira (2017)

BBC - Expedition Volcano Series 1 Part 2: Nyamulagira (2017)
HDTV | 1280x720 | .MP4/AVC @ 3197 Kbps | 59 min 13 s | 1.39 GiB
Audio: English AAC 160 kbps, 2 channels | Subs: English
Genre: Documentary

For the past week, the expedition has focused on Nyiragongo. Now Chris Jackson and his fellow geologists are heading to the nearby volcano Nyamulagira - one of the most active yet least explored volcanoes on the planet. Few have visited this volcano, for a good reason - the forests that blanket its slopes hide a number of armed groups. The team travel on a UN helicopter flight at treetop level to avoid being hit by groundfire, before landing as close to the active crater as they can. They then have only a few hours to gain as much data as possible to help predict future eruptions. While the science team explores these geological phenomena, Dr Xand van Tulleken travels across the region to discover how the volcanoes influence every aspect of life here, both for good and bad. He sees the legacy of violence created by the volcanic mineral riches.

General
Complete name : BBC.Expedition.Volcano.Series.1.Part.2.Nyamulagira.720p.mp4
Format : MPEG-4
Format profile : Base Media
Codec ID : isom (isom)
File size : 1.39 GiB
Duration : 59 min 13 s
Overall bit rate mode : Variable
Overall bit rate : 3 359 kb/s

Video
ID : 1
Format : AVC
Format/Info : Advanced Video Codec
Format profile : High@L4.1
Format settings, CABAC : No
Format settings, ReFrames : 2 frames
Format settings, GOP : M=1, N=12
Codec ID : avc1
Codec ID/Info : Advanced Video Coding
Duration : 59 min 13 s
Bit rate : 3 197 kb/s
Maximum bit rate : 9 387 kb/s
Width : 1 280 pixels
Height : 720 pixels
Display aspect ratio : 16:9
Frame rate mode : Constant
Frame rate : 25.000 FPS
Color space : YUV
Chroma subsampling : 4:2:0
Bit depth : 8 bits
Scan type : Progressive
Bits/(Pixel*Frame) : 0.139
Stream size : 1.32 GiB (95%)
Language : English
Encoded date : UTC 2017-12-07 16:24:01
Tagged date : UTC 2017-12-07 18:07:28

Audio
ID : 2
Format : AAC
Format/Info : Advanced Audio Codec
Format profile : LC
Codec ID : 40
Duration : 58 min 59 s
Bit rate mode : Variable
Bit rate : 160 kb/s
Maximum bit rate : 196 kb/s
Channel(s) : 2 channels
Channel positions : Front: L R
Sampling rate : 48.0 kHz
Frame rate : 46.875 FPS (1024 spf)
Compression mode : Lossy
Stream size : 67.5 MiB (5%)
Language : English
Encoded date : UTC 2017-12-07 18:07:21
Tagged date : UTC 2017-12-07 18:07:28

Text
ID : 3
Format : Timed Text
Codec ID : tx3g
Duration : 58 min 28 s
Bit rate mode : Variable
Bit rate : 87 b/s
Stream size : 37.1 KiB (0%)
Forced : No
Encoded date : UTC 2017-12-07 18:07:28
Tagged date : UTC 2017-12-07 18:07:28


Screenshots:

BBC - Expedition Volcano Series 1 Part 2: Nyamulagira (2017)

BBC - Expedition Volcano Series 1 Part 2: Nyamulagira (2017)

BBC - Expedition Volcano Series 1 Part 2: Nyamulagira (2017)

BBC - Expedition Volcano Series 1 Part 2: Nyamulagira (2017)