Tags
Language
Tags
March 2024
Su Mo Tu We Th Fr Sa
25 26 27 28 29 1 2
3 4 5 6 7 8 9
10 11 12 13 14 15 16
17 18 19 20 21 22 23
24 25 26 27 28 29 30
31 1 2 3 4 5 6
Attention❗ To save your time, in order to download anything on this site, you must be registered 👉 HERE. If you do not have a registration yet, it is better to do it right away. ✌

( • )( • ) ( ͡⚆ ͜ʖ ͡⚆ ) (‿ˠ‿)
SpicyMags.xyz

BBC - Fred Dibnah's Industrial Age (1999)

Posted By: notbanned
720p (HD) / HDTV
BBC - Fred Dibnah's Industrial Age (1999)

BBC - Fred Dibnah's Industrial Age (1999)
HDTV | 1280x720 | .MKV/AVC @ 2551 Kbps | 2 h 49 min | 3.18 GiB
Audio: English AAC 132 kbps, 2 channels | Subs: English
Genre: Documentary

Fred Dibnah sets out on an enthusiastic tour of Britain's industrial heritage.
Ch1. Wind, Water and Steam
Explores the early use of wind and water power and visiting some steam engines still in use today. On his travels the presenter visits old Lancashire to observe the workings of the Bolton, Bury and Manchester Canal.

Ch2. Mills and Factories
An exploration of the textile mills and factories that once thrived in Britain during the Industrial Revolution. From New Lanark in Scotland to the mill town of Burnley, Fred meets ex-workers to discover what life was really like, and chats to a group that has dedicated 30 years to restoring mill engines.

Ch3. Iron and Steel
Fred examines the history of the iron and steel industries, beginning with a visit to Ironbridge Gorge in Shropshire. Fred moves on to the Black Country, where he learns how the anchor for the ill-fated Titanic was made, before getting the chance to drive the biggest steam-powered rolling mill engine he has ever seen.

Ch4. Mining
A tour of Britain's mining heritage takes Fred from Cornwall to Scotland, where he visits sites of lead, slate, tin and coal extraction. Along the way, the machine-mad former steeplejack has a chance to man a winding engine and descends a mine shaft while strapped to the top of the cage.

Ch5. Railways
Fred visits the North East, a region rich in transport history, to explore the development of Britain's railways, from the first steam locomotives to the record-breaking Mallard. A visit to York's National Railway Museum offers the chance to ride a replica of Stephenson's Rocket, while at Ffestiniog Railway he learns about the computer-aided design process used for new locomotives.

Ch6. Ships and Engineering
Fred recalls the golden age of shipbuilding, examining the skills of engineers who turned Britain into one of the leading manufacturing nations, and visits Bristol to pay tribute to his personal hero Isambard Kingdom Brunel. He also travels to Scotland for a voyage on the paddle steamer Waverley.

General
Unique ID : 34026688272071283877493847354355903196 (0x19994D41CAAAD8EF79705A0D151A6ADC)
Complete name : BBC.Fred.Dibnahs.Industrial.Age.720p.mkv
Format : Matroska
Format version : Version 4 / Version 2
File size : 3.18 GiB
Duration : 2 h 49 min
Overall bit rate : 2 686 kb/s

Video
ID : 1
Format : AVC
Format/Info : Advanced Video Codec
Format profile : High@L3.2
Format settings, CABAC : Yes
Format settings, ReFrames : 4 frames
Codec ID : V_MPEG4/ISO/AVC
Duration : 2 h 49 min
Bit rate : 2 551 kb/s
Width : 1 280 pixels
Height : 720 pixels
Display aspect ratio : 16:9
Frame rate mode : Constant
Frame rate : 50.000 FPS
Color space : YUV
Chroma subsampling : 4:2:0
Bit depth : 8 bits
Scan type : Progressive
Bits/(Pixel*Frame) : 0.055
Stream size : 3.02 GiB (95%)
Writing library : x264 core 161 r3018 db0d417
Encoding settings : cabac=1 / ref=4 / deblock=1:0:0 / analyse=0x3:0x113 / me=umh / subme=9 / psy=1 / psy_rd=1.00:0.00 / mixed_ref=1 / me_range=24 / chroma_me=1 / trellis=1 / 8x8dct=1 / cqm=0 / deadzone=21,11 / fast_pskip=0 / chroma_qp_offset=-2 / threads=18 / lookahead_threads=3 / sliced_threads=0 / nr=0 / decimate=1 / interlaced=0 / bluray_compat=0 / constrained_intra=0 / bframes=7 / b_pyramid=2 / b_adapt=2 / b_bias=0 / direct=1 / weightb=1 / open_gop=0 / weightp=2 / keyint=500 / keyint_min=50 / scenecut=40 / intra_refresh=0 / rc_lookahead=40 / rc=crf / mbtree=1 / crf=21.0 / qcomp=0.60 / qpmin=0 / qpmax=69 / qpstep=4 / ip_ratio=1.40 / aq=1:1.00
Language : English
Default : Yes
Forced : No
Color range : Limited
Color primaries : BT.709
Transfer characteristics : BT.709
Matrix coefficients : BT.709

Audio
ID : 2
Format : AAC
Format/Info : Advanced Audio Codec
Format profile : LC
Codec ID : A_AAC
Duration : 2 h 49 min
Bit rate : 132 kb/s
Channel(s) : 2 channels
Channel positions : Front: L R
Sampling rate : 48.0 kHz
Frame rate : 46.875 FPS (1024 spf)
Compression mode : Lossy
Delay relative to video : 20 ms
Stream size : 159 MiB (5%)
Language : English
Default : Yes
Forced : No

Text
ID : 3
Format : UTF-8
Codec ID : S_TEXT/UTF8
Codec ID/Info : UTF-8 Plain Text
Duration : 2 h 48 min
Bit rate : 80 b/s
Count of elements : 1989
Stream size : 99.6 KiB (0%)
Language : English
Default : No
Forced : No

Menu
00:00:00.000 : en:Wind, Water and Steam
00:27:54.000 : en:Mills and Factories
00:56:16.000 : en:Iron and Steel
01:24:43.000 : en:Mining
01:52:49.000 : en:Railways
02:20:49.000 : en:Ships and Engineering


Screenshots:

BBC - Fred Dibnah's Industrial Age (1999)

BBC - Fred Dibnah's Industrial Age (1999)

BBC - Fred Dibnah's Industrial Age (1999)

BBC - Fred Dibnah's Industrial Age (1999)