BBC - Gravity and Me: The Force that Shapes Our Lives (2017)

Posted By: notbanned
1080p (FullHD) / HDTV IMDb
BBC - Gravity and Me: The Force that Shapes Our Lives (2017)

BBC - Gravity and Me: The Force that Shapes Our Lives (2017)
HDTV | 1920x1080 | .MKV/AVC @ 1753 Kbps | 1 h 28 min | 1.17 GiB
Audio: English AAC 127 kbps, 2 channels | Subs: English
Genre: Documentary

Jim Al-Khalili investigates the amazing science of gravity. A fundamental force of nature, gravity shapes our entire universe, sculpting galaxies and warping space and time. But gravity's strange powers, discovered by Albert Einstein, also affect our daily lives in the most unexpected ways. As Jim tells the story of gravity, it challenges his own understanding of the nature of reality. The science of gravity includes the greatest advances in physics, and Jim recreates groundbreaking experiments in gravity including when the Italian genius Galileo first worked out how to measure it. Gravity science is still full of surprises and Jim investigates the latest breakthrough - 'gravity waves' - ripples in the vast emptiness of space. He also finds out from astronauts what it's like to live without gravity. But gravity also directly affects all of us very personally - making a difference to our weight, height, posture and even the rate at which we age. With the help of volunteers and scientists, Jim sets out to find where in Britain gravity is weakest and so where we weigh the least. He also helps design a smartphone app that volunteers use to demonstrate how gravity affects time and makes us age at slightly different rates. And finally, Jim discovers that despite incredible progress, gravity has many secrets.

General
Unique ID : 125276810061591406082702773156093175850 (0x5E3F6F9C9D3C7ADEBB0A1DB16D65282A)
Complete name : BBC.Gravity.and.Me.The.Fce.That.Shapes.Our.Lives.1080p.mkv
Format : Matroska
Format version : Version 4 / Version 2
File size : 1.17 GiB
Duration : 1 h 28 min
Overall bit rate : 1 882 kb/s

Video
ID : 1
Format : HEVC
Format/Info : High Efficiency Video Coding
Format profile : Main 10@L4@Main
Codec ID : V_MPEGH/ISO/HEVC
Duration : 1 h 28 min
Bit rate : 1 753 kb/s
Width : 1 920 pixels
Height : 1 080 pixels
Display aspect ratio : 16:9
Frame rate mode : Constant
Frame rate : 25.000 FPS
Color space : YUV
Chroma subsampling : 4:2:0
Bit depth : 10 bits
Bits/(Pixel*Frame) : 0.034
Stream size : 1.09 GiB (93%)
Encoding settings : cpuid=1111039 / frame-threads=3 / numa-pools=12 / wpp / no-pmode / no-pme / no-psnr / no-ssim / log-level=2 / input-csp=1 / input-res=1920x1080 / interlace=0 / total-frames=133149 / level-idc=0 / high-tier=1 / uhd-bd=0 / ref=3 / no-allow-non-conformance / no-repeat-headers / annexb / no-aud / no-hrd / info / hash=0 / no-temporal-layers / no-open-gop / min-keyint=25 / keyint=250 / gop-lookahead=12 / bframes=6 / b-adapt=2 / b-pyramid / bframe-bias=0 / rc-lookahead=20 / lookahead-slices=6 / scenecut=40 / radl=0 / no-intra-refresh / ctu=64 / min-cu-size=8 / no-rect / no-amp / max-tu-size=32 / tu-inter-depth=1 / tu-intra-depth=1 / limit-tu=0 / rdoq-level=0 / dynamic-rd=0.00 / no-ssim-rd / signhide / no-tskip / nr-intra=0 / nr-inter=0 / no-constrained-intra / strong-intra-smoothing / max-merge=2 / limit-refs=3 / no-limit-modes / me=1 / subme=2 / merange=57 / temporal-mvp / weightp / weightb / no-analyze-src-pics / deblock=0:0 / sao / no-sao-non-deblock / rd=3 / no-early-skip / rskip / no-fast-intra / no-tskip-fast / no-cu-lossless / no-b-intra / no-splitrd-skip / rdpenalty=0 / psy-rd=2.00 / psy-rdoq=0.00 / no-rd-refine / no-lossless / cbqpoffs=0 / crqpoffs=0 / rc=crf / crf=23.0 / qcomp=0.60 / qpstep=4 / stats-write=0 / stats-read=0 / ipratio=1.40 / pbratio=1.30 / aq-mode=1 / aq-strength=1.00 / cutree / zone-count=0 / no-strict-cbr / qg-size=32 / no-rc-grain / qpmax=69 / qpmin=0 / no-const-vbv / sar=0 / overscan=0 / videoformat=5 / range=0 / colorprim=1 / transfer=1 / colormatrix=1 / chromaloc=0 / display-window=0 / max-cll=0,0 / min-luma=0 / max-luma=1023 / log2-max-poc-lsb=8 / vui-timing-info / vui-hrd-info / slices=1 / no-opt-qp-pps / no-opt-ref-list-length-pps / no-multi-pass-opt-rps / scenecut-bias=0.05 / no-opt-cu-delta-qp / no-aq-motion / no-hdr / no-hdr-opt / no-dhdr10-opt / no-idr-recovery-sei / analysis-reuse-level=5 / scale-factor=0 / refine-intra=0 / refine-inter=0 / refine-mv=0 / no-limit-sao / ctu-info=0 / no-lowpass-dct / refine-mv-type=0 / copy-pic=1 / max-ausize-factor=1.0 / no-dynamic-refine / no-single-sei
Language : English
Default : Yes
Forced : No
Color range : Limited
Color primaries : BT.709
Transfer characteristics : BT.709
Matrix coefficients : BT.709

Audio
ID : 2
Format : AAC
Format/Info : Advanced Audio Codec
Format profile : LC
Codec ID : A_AAC
Duration : 1 h 28 min
Bit rate : 127 kb/s
Channel(s) : 2 channels
Channel positions : Front: L R
Sampling rate : 48.0 kHz
Frame rate : 46.875 FPS (1024 spf)
Compression mode : Lossy
Delay relative to video : 9 ms
Stream size : 80.5 MiB (7%)
Language : English
Default : Yes
Forced : No

Text
ID : 3
Format : UTF-8
Codec ID : S_TEXT/UTF8
Codec ID/Info : UTF-8 Plain Text
Duration : 1 h 28 min
Bit rate : 98 b/s
Count of elements : 1459
Stream size : 63.4 KiB (0%)
Language : English
Default : No
Forced : No


Screenshots:

BBC - Gravity and Me: The Force that Shapes Our Lives (2017)

BBC - Gravity and Me: The Force that Shapes Our Lives (2017)

BBC - Gravity and Me: The Force that Shapes Our Lives (2017)

BBC - Gravity and Me: The Force that Shapes Our Lives (2017)