Tags
Language
Tags

BBC - Kerry is Kirsty: Scotland's Best Cycling Routes Series 1 (2018)

Posted By: notbanned
SD / DVDRip
BBC - Kerry is Kirsty: Scotland's Best Cycling Routes Series 1 (2018)

BBC - Kerry is Kirsty: Scotland's Best Cycling Routes Series 1 (2018)
PDTV | 960x540 | .MKV/AVC @ 928 Kbps | 3 h 48 min | 1.59 GiB
Audio: Gaelic AAC 160 kbps, 2 channels | Subs: English
Genre: Documentary

Cycling sisters Kerry and Kirsty MacPhee from South Uist take to social media to find out the nation's favourite cycle routes.
1. A'Chomraich
They are in Applecross in Wester Ross and accompanied by wild swimmer Calum MacLean, who has chosen a route there because of his family ties to the area and his fond memories of holidaying there. Calum is avoiding the world renowned Bealach na Bà though in favour of a lesser-known off-road route. Starting at Kenmore on Loch Torridon, they mountain bike through Applecross Glen to reach the west coast of the peninsula before finishing the cycle route off with a cooling dip in Applecross River - Calum's recommendation of course!

2. Stafainn
They are in north east Skye in the Trotternish peninsula with local Kerr Gibb, who is lucky enough to count this route as his commute to work. Starting at Portree harbour they cycle past some of Skye's most famous landmarks. They admire the strange rock formations of the Old Man of Storr and Kilt Rock before tackling the steep climb up the winding road to the Quiraing. The girls also hear about Skye's reputation as the Jurassic Isle and visit the dinosaur footprints on Staffin beach which have made the island so famous in recent years.

3. Morar gu Arasaig
They are in Morar and Arisaig - also known as the rough bounds - with local cyclist Lisa Annette, who has rediscovered the beauty of her her home turf through trips on the bike. Starting at Bracorina they follow the banks of Loch Morar, Britain's deepest fresh water loch and hear about its legendary resident, Morag the monster. They stop for a break just in time to see famous steam train the Jacobite, a train made more famous in recent years thanks to its appearance in the Harry Potter films. Continuing on they pass white west coast beaches with stunning views out to the Small Isles and Skye.

4. Coigeach
Yhey are in Coigeach in Scotland's north west with Seonaidh Charity, who first got to know his chosen route as he'd often travel the road to visit his now fiancee. Starting at the foot of a mist-shrouded Stac Polly they head off round the Coigeach peninsula. Before long the bracing wind clears the clouds to open up fantastic views of the Summer Isles and the hill tops of Assynt. Seonaidh tells the girls about the fairy folklore in the area and they meet his future father-in-law to find out more about the place names in the area.

5. Caol Reatha gu Drochaid Sheile
They take on big hill climbs in the south of Skye and the mainland with Fiona Grant, a cycling aficionado who lives in Skye. The first steep climb starts at Ashaig before a swift descent with sharp alpine bends to Kylerhea. Here they catch the world's only hand-operated turntable ferry, the Glenachulish, across the water to the mainland to reach the picturesque village of Glenelg. From here they carry on to another gruelling climb up to the summit of Mam Ratagan with its rewarding views of the Five Sisters of Kintail.

6. Asainnte
They are in Assynt on the north west coast with Ruairidh MacKay who has fond memories of coming to the area when he was a young boy and now brings his own family here. The girls and Ruairidh start off on the Clachtoll peat road once used by locals to reach remote peat banks. They are greeted with dazzling sunshine which, despite its best attempts, hasn't dried out all of the bogs and Ruairidh takes the plunge headfirst into one. Luckily for him he isn't long drying off in this heat. They carry rejoin the main road and continue up the coast, stopping at Clachtoll beach, which seems Mediterranean on a day like this, before finishing their day's cycling at the dramatic seascapes of Stoer Lighthouse.

7. Srath Narann
They are in Strath Nairn south east of Loch Ness exploring the areas lochs with Raghnaid Sandilands, a self-confessed map boffin, who began using her bike to explore the places she sees while researching maps and place names of the area. They start their cycle in Farr and head straight for a community project Raghnaid has been involved in where they are growing their own fruit and vegetables. Continuing on to Loch Duntelchaig, Raghnaid explains her theory why this is where her and her children believe the real Nessie lives. The cyclists plough on to Loch Ashie, with its own stories of sightings of a ghostly battling Norse warrior and Fionn.

8. Beinn Dobhrain gu Loch Liomhann
They are just north of Tyndrum at Loch Lyon with hill-walker Colin MacLeod, whose bike is a means to an end for reaching more summits. Starting their route at the foot of Beinn Dorain, Colin has a slalom of rivers crossings lined up for the girls and they battle across fjords flowing down from the surrounding hills. Unfortunately for Colin and Kirsty, they don't manage to stay dry - and Kerry isn't sympathetic for their wet feet. They pass over the West Highland Way, which attracts walkers all year round, before then also passing under the West Highland Railway Line. Colin and the girls then stop at the fank where famed Gaelic poet Duncan bàn MacIntyre once lived and worked.

General
Unique ID : 228748508676230785375467558735909381401 (0xAC175C39F4E425939CCD1DBD8F9E6519)
Complete name : BBC.Kerry.is.Kirsty.Scotlands.Best.Cycling.Routes.Series.1.PDTV.mkv
Format : Matroska
Format version : Version 4 / Version 2
File size : 1.59 GiB
Duration : 3 h 48 min
Overall bit rate : 994 kb/s

Video
ID : 1
Format : HEVC
Format/Info : High Efficiency Video Coding
Format profile : Main@L3@Main
Codec ID : V_MPEGH/ISO/HEVC
Duration : 3 h 48 min
Bit rate : 928 kb/s
Width : 960 pixels
Height : 540 pixels
Display aspect ratio : 16:9
Frame rate mode : Constant
Frame rate : 25.000 FPS
Color space : YUV
Chroma subsampling : 4:2:0
Bit depth : 8 bits
Bits/(Pixel*Frame) : 0.072
Stream size : 1.48 GiB (93%)
Encoding settings : cpuid=1310975 / frame-threads=1 / numa-pools=2 / wpp / no-pmode / no-pme / no-psnr / no-ssim / log-level=2 / input-csp=1 / input-res=960x540 / interlace=0 / total-frames=42748 / level-idc=0 / high-tier=1 / uhd-bd=0 / ref=3 / no-allow-non-conformance / no-repeat-headers / annexb / no-aud / no-hrd / info / hash=0 / no-temporal-layers / no-open-gop / min-keyint=25 / keyint=250 / gop-lookahead=13 / bframes=5 / b-adapt=2 / b-pyramid / bframe-bias=0 / rc-lookahead=20 / lookahead-slices=0 / scenecut=40 / radl=0 / no-intra-refresh / ctu=64 / min-cu-size=8 / no-rect / no-amp / max-tu-size=32 / tu-inter-depth=1 / tu-intra-depth=1 / limit-tu=0 / rdoq-level=0 / dynamic-rd=0.00 / no-ssim-rd / signhide / no-tskip / nr-intra=0 / nr-inter=0 / no-constrained-intra / strong-intra-smoothing / max-merge=2 / limit-refs=3 / no-limit-modes / me=1 / subme=2 / merange=57 / temporal-mvp / weightp / weightb / no-analyze-src-pics / deblock=0:0 / sao / no-sao-non-deblock / rd=3 / no-early-skip / rskip / no-fast-intra / no-tskip-fast / no-cu-lossless / no-b-intra / no-splitrd-skip / rdpenalty=0 / psy-rd=2.00 / psy-rdoq=0.00 / no-rd-refine / no-lossless / cbqpoffs=0 / crqpoffs=0 / rc=crf / crf=23.0 / qcomp=0.60 / qpstep=4 / stats-write=0 / stats-read=0 / ipratio=1.40 / pbratio=1.30 / aq-mode=1 / aq-strength=1.00 / cutree / zone-count=0 / no-strict-cbr / qg-size=32 / no-rc-grain / qpmax=69 / qpmin=0 / no-const-vbv / sar=0 / overscan=0 / videoformat=5 / range=0 / colorprim=2 / transfer=2 / colormatrix=2 / chromaloc=0 / display-window=0 / max-cll=0,0 / min-luma=0 / max-luma=255 / log2-max-poc-lsb=8 / vui-timing-info / vui-hrd-info / slices=1 / no-opt-qp-pps / no-opt-ref-list-length-pps / no-multi-pass-opt-rps / scenecut-bias=0.05 / no-opt-cu-delta-qp / no-aq-motion / no-hdr / no-hdr-opt / no-dhdr10-opt / no-idr-recovery-sei / analysis-reuse-level=5 / scale-factor=0 / refine-intra=0 / refine-inter=0 / refine-mv=0 / no-limit-sao / ctu-info=0 / no-lowpass-dct / refine-mv-type=0 / copy-pic=1 / max-ausize-factor=1.0 / no-dynamic-refine / no-single-sei
Language : Gaelic
Default : Yes
Forced : No

Audio
ID : 2
Format : AAC
Format/Info : Advanced Audio Codec
Format profile : HE-AAC / LC
Codec ID : A_AAC
Duration : 3 h 48 min
Bit rate : 64.0 kb/s
Channel(s) : 2 channels
Channel positions : Front: L R
Sampling rate : 48.0 kHz / 24.0 kHz
Frame rate : 23.438 FPS (1024 spf)
Compression mode : Lossy
Delay relative to video : 43 ms
Stream size : 105 MiB (6%)
Language : Gaelic
Default : Yes
Forced : No

Menu
00:00:00.000 : gd:1 - A'Chomraich
00:28:29.920 : gd:2 - Stafainn
00:57:00.000 : gd:3 - Morar gu Arasaig
01:25:29.920 : gd:4 - Coigeach
01:53:59.840 : gd:5 - Caol Reatha gu Drochaid Sheile
02:22:59.680 : gd:6 - Asainnte
02:51:29.600 : gd:7 - Srath Narann
03:19:59.520 : gd:8 - Beinn Dobhrain gu Loch Liomhann


Screenshots:

BBC - Kerry is Kirsty: Scotland's Best Cycling Routes Series 1 (2018)

BBC - Kerry is Kirsty: Scotland's Best Cycling Routes Series 1 (2018)

BBC - Kerry is Kirsty: Scotland's Best Cycling Routes Series 1 (2018)

BBC - Kerry is Kirsty: Scotland's Best Cycling Routes Series 1 (2018)