BBC - Magic Numbers: Hannah Fry's Mysterious World of Maths Series 1: Weirder and Weirder (2018)

Posted By: notbanned
720p (HD) / HDTV IMDb
BBC - Magic Numbers: Hannah Fry's Mysterious World of Maths Series 1: Weirder and Weirder (2018)

BBC - Magic Numbers: Hannah Fry's Mysterious World of Maths Series 1: Weirder and Weirder (2018)
HDTV | 1280x720 | .MKV/AVC @ 2610 Kbps | 59 min 2 s | 1.13 GiB
Audio: English AAC 132 kbps, 2 channels | Subs: English
Genre: Documentary

Hannah explores a paradox at the heart of modern maths, discovered by Bertrand Russell, which undermines the very foundations of logic that all of maths is built on. These flaws suggest that maths isn't a true part of the universe but might just be a human language - fallible and imprecise. However, Hannah argues that Einstein's theoretical equations, such as E=mc2 and his theory of general relativity, are so good at predicting the universe that they must be reflecting some basic structure in it. This idea is supported by Kurt Godel, who proved that there are parts of maths that we have to take on faith. Hannah then explores what maths can reveal about the fundamental building blocks of the universe - the subatomic, quantum world. The maths tells us that particles can exist in two states at once, and yet quantum physics is at the core of photosynthesis and therefore fundamental to most of life on earth - more evidence of discovering mathematical rules in nature. But if we accept that maths is part of the structure of the universe, there are two main problems: firstly, the two main theories that predict and describe the universe - quantum physics and general relativity - are actually incompatible; and secondly, most of the maths behind them suggests the likelihood of something even stranger - multiple universes. We may just have to accept that the world really is weirder than we thought, and Hannah concludes that while we have invented the language of maths, the structure behind it all is something we discover. And beyond that, it is the debate about the origins of maths that has had the most profound consequences: it has truly transformed the human experience, giving us powerful new number systems and an understanding that now underpins the modern world.
Also You Can Look My Other Last: Magic+Numbers+Hannah+Fry's+Mysterious+World+of+Maths


General
Unique ID : 179226825842997169102820629489066800446 (0x86D5D4C130B935828C9F2A142281753E)
Complete name : BBC.Magic.Numbers.Mysterious.World.of.Maths.Weirder.and.Weirder.720p.mkv
Format : Matroska
Format version : Version 4 / Version 2
File size : 1.13 GiB
Duration : 59 min 2 s
Overall bit rate : 2 743 kb/s

Video
ID : 1
Format : AVC
Format/Info : Advanced Video Codec
Format profile : High@L3.1
Format settings, CABAC : Yes
Format settings, ReFrames : 4 frames
Codec ID : V_MPEG4/ISO/AVC
Duration : 59 min 2 s
Bit rate : 2 610 kb/s
Width : 1 280 pixels
Height : 720 pixels
Display aspect ratio : 16:9
Frame rate mode : Constant
Frame rate : 25.000 FPS
Color space : YUV
Chroma subsampling : 4:2:0
Bit depth : 8 bits
Scan type : Progressive
Bits/(Pixel*Frame) : 0.113
Stream size : 1.08 GiB (95%)
Encoding settings : cabac=1 / ref=4 / deblock=1:0:0 / analyse=0x3:0x113 / me=umh / subme=9 / psy=1 / psy_rd=1.00:0.00 / mixed_ref=1 / me_range=24 / chroma_me=1 / trellis=1 / 8x8dct=1 / cqm=0 / deadzone=21,11 / fast_pskip=0 / chroma_qp_offset=-2 / threads=18 / lookahead_threads=2 / sliced_threads=0 / nr=0 / decimate=1 / interlaced=0 / bluray_compat=0 / constrained_intra=0 / bframes=6 / b_pyramid=2 / b_adapt=2 / b_bias=0 / direct=1 / weightb=1 / open_gop=0 / weightp=2 / keyint=250 / keyint_min=25 / scenecut=40 / intra_refresh=0 / rc_lookahead=40 / rc=crf / mbtree=1 / crf=19.0 / qcomp=0.60 / qpmin=0 / qpmax=69 / qpstep=4 / ip_ratio=1.40 / aq=1:1.00
Language : English
Default : Yes
Forced : No
Color range : Limited
Color primaries : BT.709
Transfer characteristics : BT.709
Matrix coefficients : BT.709

Audio
ID : 2
Format : AAC
Format/Info : Advanced Audio Codec
Format profile : LC
Codec ID : A_AAC
Duration : 59 min 2 s
Bit rate : 132 kb/s
Channel(s) : 2 channels
Channel positions : Front: L R
Sampling rate : 48.0 kHz
Frame rate : 46.875 FPS (1024 spf)
Compression mode : Lossy
Delay relative to video : 9 ms
Stream size : 55.1 MiB (5%)
Language : English
Default : Yes
Forced : No

Text
ID : 3
Format : UTF-8
Codec ID : S_TEXT/UTF8
Codec ID/Info : UTF-8 Plain Text
Duration : 58 min 31 s
Bit rate : 100 b/s
Count of elements : 959
Stream size : 43.1 KiB (0%)
Language : English
Default : No
Forced : No


Screenshots:

BBC - Magic Numbers: Hannah Fry's Mysterious World of Maths Series 1: Weirder and Weirder (2018)

BBC - Magic Numbers: Hannah Fry's Mysterious World of Maths Series 1: Weirder and Weirder (2018)

BBC - Magic Numbers: Hannah Fry's Mysterious World of Maths Series 1: Weirder and Weirder (2018)

BBC - Magic Numbers: Hannah Fry's Mysterious World of Maths Series 1: Weirder and Weirder (2018)