Tags
Language
Tags

BBC - Morocco to Timbuktu: An Arabian Adventure (2017)

Posted By: notbanned
1080p (FullHD) / HDTV
BBC - Morocco to Timbuktu: An Arabian Adventure (2017)

BBC - Morocco to Timbuktu: An Arabian Adventure (2017)
HDTV | 1920x1080 | .MKV/AVC @ 2403 Kbps | 1 h 58 min | 2.09 GiB
Audio: English AAC 132 kbps, 2 channels | Subs: English
Genre: Documentary

Alice Morrison journeys beneath the veil along Africa's infamous salt roads from Morocco via the Sahara Desert to the legendary city of Gold, Timbuktu.

Chapter 1:
Setting off from Tangier, Alice learns how the routes were forged by the demand for gold from the mines of sub-Saharan Africa. She then passes through the Islamic city Fes, home to the world's oldest university, catches a train to the great market town of Marrakech and treks across the Atlas Mountains, before visiting the ancient caves of salt, the commodity that gave the roads their name.

Chapter 2:
Alice embarks on a camel trek over the dunes of the Sahara, 3.5 million square miles of desert, for the second and final part of her journey to Timbuktu. Along the way she visits a livestock market that centuries ago provided merchants with their camels, before reaching her final destination. Far from the legendary City of Gold, Timbuktu is a city where UN solders keep a fragile peace after an incursion by Islamic extremists in 2012. Alice relives the city's glorious past with a visit to its world famous mosques, meets the Tuaregs - desert nomads who have sought refuge in there - and celebrates at a party with her newfound friends.

General
Unique ID : 107003851362324006783778838695842947571 (0x50803130C3DC4BFABFFB012BA1A821F3)
Complete name : BBC.Morocco.to.Timbuktu.An.Arabian.Adventure.1080p.mkv
Format : Matroska
Format version : Version 4 / Version 2
File size : 2.09 GiB
Duration : 1 h 58 min
Overall bit rate : 2 535 kb/s

Video
ID : 1
Format : HEVC
Format/Info : High Efficiency Video Coding
Format profile : Main@L4@Main
Codec ID : V_MPEGH/ISO/HEVC
Duration : 1 h 58 min
Bit rate : 2 403 kb/s
Width : 1 920 pixels
Height : 1 080 pixels
Display aspect ratio : 16:9
Frame rate mode : Constant
Frame rate : 25.000 FPS
Color space : YUV
Chroma subsampling : 4:2:0
Bit depth : 8 bits
Bits/(Pixel*Frame) : 0.046
Encoding settings : cpuid=1111039 / frame-threads=3 / numa-pools=12 / wpp / no-pmode / no-pme / no-psnr / no-ssim / log-level=2 / input-csp=1 / input-res=1920x1080 / interlace=0 / total-frames=88500 / level-idc=0 / high-tier=1 / uhd-bd=0 / ref=3 / no-allow-non-conformance / no-repeat-headers / annexb / no-aud / no-hrd / info / hash=0 / no-temporal-layers / no-open-gop / min-keyint=25 / keyint=250 / gop-lookahead=12 / bframes=6 / b-adapt=2 / b-pyramid / bframe-bias=0 / rc-lookahead=20 / lookahead-slices=6 / scenecut=40 / hist-scenecut=0 / radl=0 / no-splice / no-intra-refresh / ctu=64 / min-cu-size=8 / no-rect / no-amp / max-tu-size=32 / tu-inter-depth=1 / tu-intra-depth=1 / limit-tu=0 / rdoq-level=0 / dynamic-rd=0.00 / no-ssim-rd / signhide / no-tskip / nr-intra=0 / nr-inter=0 / no-constrained-intra / strong-intra-smoothing / max-merge=3 / limit-refs=1 / no-limit-modes / me=2 / subme=2 / merange=48 / temporal-mvp / no-frame-dup / hme / Level / merange / L0,L1,L2=16,32,48 / weightp / weightb / no-analyze-src-pics / deblock=0:0 / sao / no-sao-non-deblock / rd=3 / selective-sao=4 / early-skip / rskip / no-fast-intra / no-tskip-fast / no-cu-lossless / b-intra / no-splitrd-skip / rdpenalty=0 / psy-rd=2.00 / psy-rdoq=0.00 / no-rd-refine / no-lossless / cbqpoffs=0 / crqpoffs=0 / rc=crf / crf=22.0 / qcomp=0.60 / qpstep=4 / stats-write=0 / stats-read=0 / ipratio=1.40 / pbratio=1.30 / aq-mode=4 / aq-strength=1.00 / cutree / zone-count=0 / no-strict-cbr / qg-size=32 / no-rc-grain / qpmax=69 / qpmin=0 / no-const-vbv / sar=1 / overscan=0 / videoformat=5 / range=0 / colorprim=1 / transfer=1 / colormatrix=1 / chromaloc=0 / display-window=0 / cll=0,0 / min-luma=0 / max-luma=255 / log2-max-poc-lsb=8 / vui-timing-info / vui-hrd-info / slices=1 / no-opt-qp-pps / no-opt-ref-list-length-pps / no-multi-pass-opt-rps / scenecut-bias=0.05 / hist-threshold=0.03 / no-opt-cu-delta-qp / no-aq-motion / no-hdr10 / no-hdr10-opt / no-dhdr10-opt / no-idr-recovery-sei / analysis-reuse-level=0 / analysis-save-reuse-level=0 / analysis-load-reuse-level=0 / scale-factor=0 / refine-intra=0 / refine-inter=0 / refine-mv=1 / refine-ctu-distortion=0 / no-limit-sao / ctu-info=0 / no-lowpass-dct / refine-analysis-type=0 / copy-pic=1 / max-ausize-factor=1.0 / no-dynamic-refine / no-single-sei / no-hevc-aq / no-svt / no-field / qp-adaptation-range=1.00 / scenecut-aware-qp=0conformance-window-offsets / right=0 / bottom=0 / decoder-max-rate=0 / no-vbv-live-multi-pass
Language : English
Default : Yes
Forced : No
Color range : Limited
Color primaries : BT.709
Transfer characteristics : BT.709
Matrix coefficients : BT.709

Audio
ID : 2
Format : AAC
Format/Info : Advanced Audio Codec
Format profile : LC
Codec ID : A_AAC
Duration : 1 h 58 min
Bit rate : 132 kb/s
Channel(s) : 2 channels
Channel positions : Front: L R
Sampling rate : 48.0 kHz
Frame rate : 46.875 FPS (1024 spf)
Compression mode : Lossy
Stream size : 110 MiB (5%)
Language : English
Default : Yes
Forced : No

Text
ID : 3
Format : UTF-8
Codec ID : S_TEXT/UTF8
Codec ID/Info : UTF-8 Plain Text
Duration : 1 h 57 min
Bit rate : 79 b/s
Count of elements : 1522
Stream size : 68.7 KiB (0%)
Language : English
Default : No
Forced : No

Menu
00:00:00.000 : en:Part 1
00:59:00.000 : en:Part 2


Screenshots:

BBC - Morocco to Timbuktu: An Arabian Adventure (2017)

BBC - Morocco to Timbuktu: An Arabian Adventure (2017)

BBC - Morocco to Timbuktu: An Arabian Adventure (2017)

BBC - Morocco to Timbuktu: An Arabian Adventure (2017)