Tags
Language
Tags

BBC Natural World - Empire of the Desert Ants (2011)

Posted By: notbanned
BBC Natural World - Empire of the Desert Ants (2011)

BBC Natural World - Empire of the Desert Ants (2011)
HDTV | 1920x1080 | .MP4/AVC @ 3738 Kbps | 58mn 39s | 1.61 GiB
Audio: English AAC 192 kbps, 6 channels | Subs: English
Genre: Documentary

Natural World visits the Arizona desert, where a new honey ant queen wages an intense battle for survival as she attempts to build and defend her empire. Eliminating rivals with ruthless efficiency, sacrificing thousands in her quest for domination, murder, cannibalism, genocide - she will do anything to keep her crown. Empire of the Ants is the epic story of one honey ant queen's dramatic rise to power - and her brutal fall from grace.


General
Complete name : BBC.Natural.World.2011.Empire.of.the.Desert.Ants.1080p.mp4
Format : MPEG-4
Format profile : Base Media
Codec ID : isom
File size : 1.61 GiB
Duration : 58mn 39s
Overall bit rate mode : Variable
Overall bit rate : 3 932 Kbps

Video
ID : 1
Format : AVC
Format/Info : Advanced Video Codec
Format profile : High@L4.1
Format settings, CABAC : Yes
Format settings, ReFrames : 4 frames
Codec ID : avc1
Codec ID/Info : Advanced Video Coding
Duration : 58mn 39s
Bit rate : 3 738 Kbps
Maximum bit rate : 22.7 Mbps
Width : 1 920 pixels
Height : 1 080 pixels
Display aspect ratio : 16:9
Frame rate mode : Constant
Frame rate : 25.000 fps
Color space : YUV
Chroma subsampling : 4:2:0
Bit depth : 8 bits
Scan type : Progressive
Bits/(Pixel*Frame) : 0.072
Stream size : 1.53 GiB (95%)
Title : 264:fps=25.0@GPAC0.6.1-rev0-g72d766c-master
Writing library : x264 core 148 r2721 72d53ab
Encoding settings : cabac=1 / ref=4 / deblock=1:0:0 / analyse=0x3:0x113 / me=umh / subme=9 / psy=1 / psy_rd=1.00:0.00 / mixed_ref=1 / me_range=32 / chroma_me=1 / trellis=1 / 8x8dct=1 / cqm=0 / deadzone=21,11 / fast_pskip=0 / chroma_qp_offset=-2 / threads=3 / lookahead_threads=1 / sliced_threads=0 / nr=0 / decimate=1 / interlaced=0 / bluray_compat=0 / constrained_intra=0 / bframes=5 / b_pyramid=2 / b_adapt=2 / b_bias=0 / direct=1 / weightb=1 / open_gop=0 / weightp=2 / keyint=250 / keyint_min=25 / scenecut=40 / intra_refresh=0 / rc_lookahead=40 / rc=crf / mbtree=1 / crf=21.5 / qcomp=0.60 / qpmin=0 / qpmax=69 / qpstep=4 / ip_ratio=1.40 / aq=1:1.00
Encoded date : UTC 2016-11-01 23:45:48
Tagged date : UTC 2016-11-02 00:01:02

Audio
ID : 2
Format : AAC
Format/Info : Advanced Audio Codec
Format profile : HE-AAC / LC
Codec ID : 40
Duration : 58mn 39s
Source duration : 58mn 40s
Bit rate mode : Variable
Bit rate : 192 Kbps
Maximum bit rate : 229 Kbps
Channel(s) : 6 channels
Channel positions : Front: L C R, Side: L R, LFE
Sampling rate : 48.0 KHz / 24.0 KHz
Compression mode : Lossy
Stream size : 80.0 MiB (5%)
Source stream size : 80.0 MiB (5%)
Title : English
Language : English
Encoded date : UTC 2016-11-01 15:26:30
Tagged date : UTC 2016-11-02 00:01:02

Text
ID : 3
Format : Timed Text
Codec ID : tx3g
Duration : 58mn 10s
Bit rate mode : Variable
Bit rate : 57 bps
Stream size : 24.4 KiB (0%)
Title : English
Language : English
Encoded date : UTC 2016-11-02 00:01:02
Tagged date : UTC 2016-11-02 00:01:02


Screenshots:

BBC Natural World - Empire of the Desert Ants (2011)

BBC Natural World - Empire of the Desert Ants (2011)

BBC Natural World - Empire of the Desert Ants (2011)

BBC Natural World - Empire of the Desert Ants (2011)