BBC Our World - Philippines: Democracy in Danger (2018)

Posted By: notbanned
720p (HD) / HDTV
BBC Our World - Philippines: Democracy in Danger (2018)

BBC Our World - Philippines: Democracy in Danger (2018)
HDTV | 1280x656 | .MKV/AVC @ 2681 Kbps | 23 min 14 s | 457 MiB
Audio: English AAC 64 kbps, 2 channels | Subs: English
Genre: Documentary

Outside the Philippines, President Rodrigo Duterte is best known for his violent 'war on drugs'. Now, two years after being elected, critics say Duterte is attacking the very institutions designed to keep his power in check. He's locking up those who criticise him whilst the children of former dictator, Ferdinand Marcos, are emerging as powerful players. As Howard Johnson reports from the capital, Manila, the outlook for democracy looks bleak.

General
Unique ID : 298644307194872675370630041510062642578 (0xE0ACCD2834A15985B96051133770D592)
Complete name : BBC.Our.World.2018.Philippines.Democracy.in.Danger.720p.mkv
Format : Matroska
Format version : Version 4 / Version 2
File size : 457 MiB
Duration : 23 min 14 s
Overall bit rate : 2 748 kb/s

Video
ID : 1
Format : AVC
Format/Info : Advanced Video Codec
Format profile : High@L3.1
Format settings, CABAC : Yes
Format settings, ReFrames : 4 frames
Codec ID : V_MPEG4/ISO/AVC
Duration : 23 min 14 s
Bit rate : 2 681 kb/s
Width : 1 280 pixels
Height : 656 pixels
Display aspect ratio : 1.951
Frame rate mode : Constant
Frame rate : 25.000 FPS
Color space : YUV
Chroma subsampling : 4:2:0
Bit depth : 8 bits
Scan type : Progressive
Bits/(Pixel*Frame) : 0.128
Stream size : 446 MiB (98%)
Encoding settings : cabac=1 / ref=4 / deblock=1:0:0 / analyse=0x3:0x113 / me=umh / subme=9 / psy=1 / psy_rd=1.00:0.00 / mixed_ref=1 / me_range=24 / chroma_me=1 / trellis=1 / 8x8dct=1 / cqm=0 / deadzone=21,11 / fast_pskip=0 / chroma_qp_offset=-2 / threads=18 / lookahead_threads=2 / sliced_threads=0 / nr=0 / decimate=1 / interlaced=0 / bluray_compat=0 / constrained_intra=0 / bframes=6 / b_pyramid=2 / b_adapt=2 / b_bias=0 / direct=1 / weightb=1 / open_gop=0 / weightp=2 / keyint=250 / keyint_min=25 / scenecut=40 / intra_refresh=0 / rc_lookahead=40 / rc=crf / mbtree=1 / crf=20.0 / qcomp=0.60 / qpmin=0 / qpmax=69 / qpstep=4 / ip_ratio=1.40 / aq=1:1.00
Language : English
Default : Yes
Forced : No
Color range : Limited
Color primaries : BT.709
Transfer characteristics : BT.709
Matrix coefficients : BT.709

Audio
ID : 2
Format : AAC
Format/Info : Advanced Audio Codec
Format profile : HE-AAC / LC
Codec ID : A_AAC
Duration : 23 min 14 s
Bit rate : 64.0 kb/s
Channel(s) : 2 channels
Channel positions : Front: L R
Sampling rate : 48.0 kHz / 24.0 kHz
Frame rate : 23.438 FPS (1024 spf)
Compression mode : Lossy
Delay relative to video : 43 ms
Stream size : 10.6 MiB (2%)
Language : English
Default : Yes
Forced : No

Text
ID : 3
Format : UTF-8
Codec ID : S_TEXT/UTF8
Codec ID/Info : UTF-8 Plain Text
Duration : 22 min 49 s
Bit rate : 694 b/s
Count of elements : 2276
Stream size : 116 KiB (0%)
Language : English
Default : No
Forced : No


Screenshots:

BBC Our World - Philippines: Democracy in Danger (2018)

BBC Our World - Philippines: Democracy in Danger (2018)

BBC Our World - Philippines: Democracy in Danger (2018)

BBC Our World - Philippines: Democracy in Danger (2018)