Tags
Language
Tags

BBC Our World - South Korea: How to Fight Coronavirus (2020)

Posted By: notbanned
1080p (FullHD) / HDTV
BBC Our World - South Korea: How to Fight Coronavirus (2020)

BBC Our World - South Korea: How to Fight Coronavirus (2020)
HDTV | 1920x940 | .MKV/AVC @ 2576 Kbps | 22 min 56 s | 434 MiB
Audio: English AAC 64 kbps, 2 channels | Subs: English
Genre: Documentary

In January, a woman passenger had her temperature checked at Incheon International Airport - and South Korea discovered its first case of coronavirus. In the hundred days that followed, the country would become a model for how to fight the virus. With unprecedented access from the first few hours of the outbreak, Laura Bicker tells the inside story of South Korea's virus hunters. How did they manage to keep the death toll so low, and what can the rest of the world learn from South Korea's story?

General
Unique ID : 160660098255172944629176323088467244160 (0x78DE0268ADF791AFAD6ABDC1287E3480)
Complete name : BBC.Our.World.2020.South.Korea.How.to.Fight.Coronavirus.1080p.mkv
Format : Matroska
Format version : Version 4 / Version 2
File size : 434 MiB
Duration : 22 min 56 s
Overall bit rate : 2 644 kb/s

Video
ID : 1
Format : HEVC
Format/Info : High Efficiency Video Coding
Format profile : Main 10@L4.1@Main
Codec ID : V_MPEGH/ISO/HEVC
Duration : 22 min 56 s
Bit rate : 2 576 kb/s
Width : 1 920 pixels
Height : 940 pixels
Display aspect ratio : 2.043
Frame rate mode : Constant
Frame rate : 50.000 FPS
Color space : YUV
Chroma subsampling : 4:2:0
Bit depth : 10 bits
Bits/(Pixel*Frame) : 0.029
Stream size : 423 MiB (97%)
Writing library : x265 3.3+33-04275ae58030:[Windows][MSVC 1926][64 bit] 10bit
Encoding settings : cpuid=1111039 / frame-threads=3 / numa-pools=12 / wpp / no-pmode / no-pme / no-psnr / no-ssim / log-level=2 / input-csp=1 / input-res=1920x940 / interlace=0 / total-frames=68842 / level-idc=0 / high-tier=1 / uhd-bd=0 / ref=3 / no-allow-non-conformance / no-repeat-headers / annexb / no-aud / no-hrd / info / hash=0 / no-temporal-layers / no-open-gop / min-keyint=50 / keyint=500 / gop-lookahead=11 / bframes=7 / b-adapt=2 / b-pyramid / bframe-bias=0 / rc-lookahead=20 / lookahead-slices=5 / scenecut=40 / hist-scenecut=0 / radl=0 / no-splice / no-intra-refresh / ctu=64 / min-cu-size=8 / no-rect / no-amp / max-tu-size=32 / tu-inter-depth=1 / tu-intra-depth=1 / limit-tu=0 / rdoq-level=0 / dynamic-rd=0.00 / no-ssim-rd / signhide / no-tskip / nr-intra=0 / nr-inter=0 / no-constrained-intra / strong-intra-smoothing / max-merge=3 / limit-refs=1 / no-limit-modes / me=2 / subme=2 / merange=48 / temporal-mvp / no-frame-dup / hme / Level / merange / L0,L1,L2=16,32,48 / weightp / weightb / no-analyze-src-pics / deblock=0:0 / sao / no-sao-non-deblock / rd=3 / selective-sao=4 / early-skip / rskip / no-fast-intra / no-tskip-fast / no-cu-lossless / b-intra / no-splitrd-skip / rdpenalty=0 / psy-rd=2.00 / psy-rdoq=0.00 / no-rd-refine / no-lossless / cbqpoffs=0 / crqpoffs=0 / rc=crf / crf=21.0 / qcomp=0.60 / qpstep=4 / stats-write=0 / stats-read=0 / ipratio=1.40 / pbratio=1.30 / aq-mode=4 / aq-strength=1.00 / cutree / zone-count=0 / no-strict-cbr / qg-size=32 / no-rc-grain / qpmax=69 / qpmin=0 / no-const-vbv / sar=1 / overscan=0 / videoformat=5 / range=0 / colorprim=1 / transfer=1 / colormatrix=1 / chromaloc=0 / display-window=0 / cll=0,0 / min-luma=0 / max-luma=1023 / log2-max-poc-lsb=8 / vui-timing-info / vui-hrd-info / slices=1 / no-opt-qp-pps / no-opt-ref-list-length-pps / no-multi-pass-opt-rps / scenecut-bias=0.05 / hist-threshold=0.01 / no-opt-cu-delta-qp / no-aq-motion / no-hdr10 / no-hdr10-opt / no-dhdr10-opt / no-idr-recovery-sei / analysis-reuse-level=0 / analysis-save-reuse-level=0 / analysis-load-reuse-level=0 / scale-factor=0 / refine-intra=0 / refine-inter=0 / refine-mv=1 / refine-ctu-distortion=0 / no-limit-sao / ctu-info=0 / no-lowpass-dct / refine-analysis-type=0 / copy-pic=1 / max-ausize-factor=1.0 / no-dynamic-refine / no-single-sei / no-hevc-aq / no-svt / no-field / qp-adaptation-range=1.00 / no-scenecut-aware-qpconformance-window-offsets / right=0 / bottom=0 / decoder-max-rate=0
Language : English
Default : Yes
Forced : No
Color range : Limited
Color primaries : BT.709
Transfer characteristics : BT.709
Matrix coefficients : BT.709

Audio
ID : 2
Format : AAC
Format/Info : Advanced Audio Codec
Format profile : HE-AAC / LC
Codec ID : A_AAC
Duration : 22 min 56 s
Bit rate : 64.0 kb/s
Channel(s) : 2 channels
Channel positions : Front: L R
Sampling rate : 48.0 kHz / 24.0 kHz
Frame rate : 23.438 FPS (1024 spf)
Compression mode : Lossy
Stream size : 10.5 MiB (2%)
Language : English
Default : Yes
Forced : No

Text
ID : 3
Format : UTF-8
Codec ID : S_TEXT/UTF8
Codec ID/Info : UTF-8 Plain Text
Duration : 22 min 24 s
Bit rate : 533 b/s
Count of elements : 1727
Stream size : 87.5 KiB (0%)
Language : English
Default : No
Forced : No


Screenshots:

BBC Our World - South Korea: How to Fight Coronavirus (2020)

BBC Our World - South Korea: How to Fight Coronavirus (2020)

BBC Our World - South Korea: How to Fight Coronavirus (2020)

BBC Our World - South Korea: How to Fight Coronavirus (2020)