BBC Panorama - Hate on the Street (2017)

Posted By: notbanned
BBC Panorama - Hate on the Street (2017)

BBC Panorama - Hate on the Street (2017)
HDTV | 1280x720 | .MKV/AVC @ 2179 Kbps | 29 min 32 s | 474 MiB
Audio: English AAC 64 kbps, 2 channels | Subs: English
Genre: Documentary

On the eve of Hate Crime Awareness Week, Panorama investigates what is happening on the country's streets. With exclusive access to the government's new crime figures, the programme reveals that race and religious hate crime is at its highest since current records began in 2008. Reporter Livvy Haydock travels the country meeting victims and perpetrators to discover what is causing the rise in these hate-driven crimes. Official figures have already revealed a significant spike in hate crime immediately after the EU referendum. Now, a year on, Livvy discovers that hate crimes have remained higher than their pre-referendum average. Livvy meets young victims who still bear the physical and emotional scars of attacks and say they had never experienced race hate on this scale before the vote. But she also hears from residents in areas with a high number of reported race hate crimes who say that the race card is being played too easily and that Brexit is being blamed for wider social problems in their community.


General
Unique ID : 222954564123990654934460459697795821001 (0xA7BB7CB472B7E0C69A1FDC0C5A18EDC9)
Complete name : BBC.Panorama.2017.Hate.on.the.Street.720p.mkv
Format : Matroska
Format version : Version 4 / Version 2
File size : 474 MiB
Duration : 29 min 32 s
Overall bit rate : 2 245 kb/s

Video
ID : 1
Format : AVC
Format/Info : Advanced Video Codec
Format profile : High@L3.1
Format settings, CABAC : Yes
Format settings, ReFrames : 4 frames
Codec ID : V_MPEG4/ISO/AVC
Duration : 29 min 32 s
Bit rate : 2 179 kb/s
Width : 1 280 pixels
Height : 720 pixels
Display aspect ratio : 16:9
Frame rate mode : Constant
Frame rate : 25.000 FPS
Color space : YUV
Chroma subsampling : 4:2:0
Bit depth : 8 bits
Scan type : Progressive
Bits/(Pixel*Frame) : 0.095
Stream size : 460 MiB (97%)
Encoding settings : cabac=1 / ref=3 / deblock=1:0:0 / analyse=0x3:0x113 / me=umh / subme=9 / psy=1 / psy_rd=1.00:0.00 / mixed_ref=1 / me_range=24 / chroma_me=1 / trellis=1 / 8x8dct=1 / cqm=0 / deadzone=21,11 / fast_pskip=0 / chroma_qp_offset=-2 / threads=3 / lookahead_threads=1 / sliced_threads=0 / nr=0 / decimate=1 / interlaced=0 / bluray_compat=0 / constrained_intra=0 / bframes=6 / b_pyramid=2 / b_adapt=2 / b_bias=0 / direct=1 / weightb=1 / open_gop=0 / weightp=2 / keyint=250 / keyint_min=25 / scenecut=40 / intra_refresh=0 / rc_lookahead=40 / rc=crf / mbtree=1 / crf=20.0 / qcomp=0.60 / qpmin=0 / qpmax=69 / qpstep=4 / ip_ratio=1.40 / aq=1:1.00
Language : English
Default : Yes
Forced : No
Color range : Limited
Color primaries : BT.709
Transfer characteristics : BT.709
Matrix coefficients : BT.709

Audio
ID : 2
Format : AAC
Format/Info : Advanced Audio Codec
Format profile : HE-AAC / LC
Codec ID : A_AAC
Duration : 29 min 31 s
Bit rate : 64.0 kb/s
Channel(s) : 2 channels
Channel positions : Front: L R
Sampling rate : 48.0 kHz / 24.0 kHz
Frame rate : 23.438 FPS (1024 spf)
Compression mode : Lossy
Delay relative to video : 31 ms
Stream size : 13.5 MiB (3%)
Language : English
Default : Yes
Forced : No

Text
ID : 3
Format : UTF-8
Codec ID : S_TEXT/UTF8
Codec ID/Info : UTF-8 Plain Text
Duration : 28 min 49 s
Bit rate : 114 b/s
Count of elements : 522
Stream size : 24.2 KiB (0%)
Language : English
Default : No
Forced : No


Screenshots:

BBC Panorama - Hate on the Street (2017)

BBC Panorama - Hate on the Street (2017)

BBC Panorama - Hate on the Street (2017)

BBC Panorama - Hate on the Street (2017)