Subcategories

BBC - Reggie Yates: Extreme UK (2015)

Posted By: notbanned
BBC - Reggie Yates: Extreme UK (2015)

BBC - Reggie Yates: Extreme UK (2015)
HDTV | 1280x720 | .MP4/AVC @ 2980 Kbps | 3x~56min | Audio: English AAC 160 kbps, 2 channels | Subs: English | 3.7 GiB
Genre: Documentary

Being a British guy in 2015 is not easy, and in this series Reggie Yates travels to the extreme edge of modern British masculinity, to discover that 21st-century pressures are changing the way we live, the way we love, and even the way we look.
Part 1: Gay and under Attack
In the first film, Reggie is shocked to discover that, for young black and Asian gays and transsexuals, their harshest critics - and persecutors - often come from their own communities, or even their own families. Whether it's young Muslims threatened with exorcism, or West African Christian parents ostracising their own gay kids, religion plays a part in the story. But Reggie also wants to find out why so few gay men of colour are visible at events like Gay Pride, given the special cultural problems they already face.

Part 2: Men at War
In the second film, Reggie meets the angry young British men who think feminism has gone too far- and some of the women who have felt their wrath, on an internet tailor-made for anti-feminism, and trolls. From young guys espousing men's rights at Speakers Corner in Hyde Park, to the underground movement of male separatists of MGTOW (or Men Going Their Own Way), Reggie also encounters infamous self-styled pick-up artist Roosh V, who dishes out advice on how to have more sex with women - but doesn't seem to like them very much.

Part 3: Dying for a Six Pack
Reggie investigates the extreme ways in which male body culture is impacting on young British guys - from extreme exercise to invasive plastic surgery and even steroid abuse. As Reggie embarks on his own challenge to get into shape he asks what it's all for and follows the story from a private hospital in Istanbul to a lock-up in the Midlands and beyond.


General
Complete name : BBC.Reggie.Yates.Extreme.UK.Series.1.1of3.Gay.And.Under.Attack.mp4
Format : MPEG-4
Format profile : Base Media
Codec ID : isom
File size : 1.25 GiB
Duration : 56mn 52s
Overall bit rate mode : Variable
Overall bit rate : 3 141 Kbps

Video
ID : 1
Format : AVC
Format/Info : Advanced Video Codec
Format profile : High@L4.1
Format settings, CABAC : Yes
Format settings, ReFrames : 4 frames
Codec ID : avc1
Codec ID/Info : Advanced Video Coding
Duration : 56mn 52s
Bit rate : 3 000 Kbps
Maximum bit rate : 9 880 Kbps
Width : 1 280 pixels
Height : 720 pixels
Display aspect ratio : 16:9
Frame rate mode : Constant
Frame rate : 25.000 fps
Color space : YUV
Chroma subsampling : 4:2:0
Bit depth : 8 bits
Scan type : Progressive
Bits/(Pixel*Frame) : 0.130
Stream size : 1.18 GiB (95%)
Encoding settings : cabac=1 / ref=1 / deblock=1:0:0 / analyse=0x3:0x3 / me=dia / subme=1 / psy=1 / psy_rd=1.00:0.00 / mixed_ref=0 / me_range=16 / chroma_me=1 / trellis=0 / 8x8dct=1 / cqm=0 / deadzone=21,11 / fast_pskip=1 / chroma_qp_offset=0 / threads=3 / lookahead_threads=1 / sliced_threads=0 / nr=0 / decimate=1 / interlaced=0 / bluray_compat=0 / constrained_intra=0 / bframes=3 / b_pyramid=2 / b_adapt=1 / b_bias=0 / direct=1 / weightb=1 / open_gop=0 / weightp=1 / keyint=250 / keyint_min=25 / scenecut=40 / intra_refresh=0 / rc_lookahead=0 / rc=abr / mbtree=0 / bitrate=3000 / ratetol=1.0 / qcomp=0.60 / qpmin=0 / qpmax=69 / qpstep=4 / vbv_maxrate=62500 / vbv_bufsize=78125 / nal_hrd=none / filler=0 / ip_ratio=1.40 / pb_ratio=1.30 / aq=1:1.00
Tagged date : UTC 2015-12-21 23:38:20
Color range : Limited
Color primaries : BT.709
Transfer characteristics : BT.709
Matrix coefficients : BT.709

Audio
ID : 2
Format : AAC
Format/Info : Advanced Audio Codec
Format profile : LC
Codec ID : 40
Duration : 56mn 52s
Bit rate mode : Variable
Bit rate : 160 Kbps
Maximum bit rate : 192 Kbps
Channel(s) : 2 channels
Channel positions : Front: L R
Sampling rate : 48.0 KHz
Compression mode : Lossy
Stream size : 65.2 MiB (5%)
Language : English
Encoded date : UTC 2015-12-21 23:38:08
Tagged date : UTC 2015-12-21 23:38:20

Text
ID : 3
Format : Timed Text
Codec ID : tx3g
Duration : 56mn 32s
Bit rate mode : Variable
Bit rate : 122 bps
Stream size : 50.3 KiB (0%)
Encoded date : UTC 2015-12-21 23:38:20
Tagged date : UTC 2015-12-21 23:38:20


Screenshots:

BBC - Reggie Yates: Extreme UK (2015)

BBC - Reggie Yates: Extreme UK (2015)

BBC - Reggie Yates: Extreme UK (2015)

BBC - Reggie Yates: Extreme UK (2015)