BBC - Shankly: Nature's Fire (2017)

Posted By: notbanned
BBC - Shankly: Nature's Fire (2017)

BBC - Shankly: Nature's Fire (2017)
PDTV | 832x468 | .MKV/AVC @ 1329 Kbps | 1 h 31 min | 912 MiB
Audio: English AAC 64 kbps, 2 channels | Subs: English
Genre: Documentary

Looks at the life and times of Bill Shankly, Liverpool FC's legendary Scottish manager. Gaining promotion from the old English second division, Shankly forged two great sides at Liverpool, winning numerous trophies along the way. A product of his working-class roots in Ayrshire, his career in management spanned a period when football was very much the people's game.


General
Unique ID : 192669386911495810919426638710822874091 (0x90F2C62F7A6365D489E2F5345B432BEB)
Complete name : BBC.Shankly.Natures.Fire.PDTV.mkv
Format : Matroska
Format version : Version 4 / Version 2
File size : 912 MiB
Duration : 1 h 31 min
Overall bit rate : 1 395 kb/s

Video
ID : 1
Format : AVC
Format/Info : Advanced Video Codec
Format profile : Main@L3.1
Format settings, CABAC : Yes
Format settings, ReFrames : 4 frames
Codec ID : V_MPEG4/ISO/AVC
Duration : 1 h 31 min
Bit rate : 1 329 kb/s
Width : 832 pixels
Height : 468 pixels
Display aspect ratio : 16:9
Frame rate mode : Constant
Frame rate : 25.000 FPS
Color space : YUV
Chroma subsampling : 4:2:0
Bit depth : 8 bits
Scan type : Progressive
Bits/(Pixel*Frame) : 0.137
Stream size : 869 MiB (95%)
Encoding settings : cabac=1 / ref=3 / deblock=1:0:0 / analyse=0x1:0x111 / me=umh / subme=9 / psy=1 / psy_rd=1.00:0.00 / mixed_ref=1 / me_range=16 / chroma_me=1 / trellis=1 / 8x8dct=0 / cqm=0 / deadzone=21,11 / fast_pskip=0 / chroma_qp_offset=-2 / threads=3 / lookahead_threads=1 / sliced_threads=0 / nr=0 / decimate=1 / interlaced=0 / bluray_compat=0 / constrained_intra=0 / bframes=6 / b_pyramid=2 / b_adapt=2 / b_bias=0 / direct=1 / weightb=1 / open_gop=0 / weightp=2 / keyint=250 / keyint_min=25 / scenecut=40 / intra_refresh=0 / rc_lookahead=40 / rc=crf / mbtree=1 / crf=21.0 / qcomp=0.60 / qpmin=0 / qpmax=69 / qpstep=4 / ip_ratio=1.40 / aq=1:1.00
Language : English
Default : Yes
Forced : No

Audio
ID : 2
Format : AAC
Format/Info : Advanced Audio Codec
Format profile : HE-AAC / LC
Codec ID : A_AAC
Duration : 1 h 31 min
Bit rate : 64.0 kb/s
Channel(s) : 2 channels
Channel positions : Front: L R
Sampling rate : 48.0 kHz / 24.0 kHz
Frame rate : 23.438 FPS (1024 spf)
Compression mode : Lossy
Delay relative to video : 43 ms
Stream size : 41.8 MiB (5%)
Language : English
Default : Yes
Forced : No

Text
ID : 3
Format : UTF-8
Codec ID : S_TEXT/UTF8
Codec ID/Info : UTF-8 Plain Text
Duration : 1 h 31 min
Bit rate : 103 b/s
Count of elements : 1412
Stream size : 69.2 KiB (0%)
Language : English
Default : No
Forced : No


Screenshots:

BBC - Shankly: Nature's Fire (2017)

BBC - Shankly: Nature's Fire (2017)

BBC - Shankly: Nature's Fire (2017)

BBC - Shankly: Nature's Fire (2017)